<?xml version="1.0" standalone="no"?>
<!DOCTYPE svg PUBLIC "-//W3C//DTD SVG 1.1//EN" "http://www.w3.org/Graphics/SVG/1.1/DTD/svg11.dtd" >
<svg>
<metadata>
Created by FontForge 20090914 at Fri Feb 24 04:40:31 2012
 By root
Caviar Dreams &#194;&#169; Lauren Thompson  2010. All rights reserved. 
</metadata>
<defs>
<font id="CaviarDreams" horiz-adv-x="430" >
  <font-face 
    font-family="Caviar Dreams"
    font-weight="300"
    font-stretch="normal"
    units-per-em="2048"
    panose-1="2 11 3 2 2 2 4 2 5 4"
    ascent="1638"
    descent="-410"
    x-height="968"
    cap-height="1600"
    bbox="-80 -375 2545 1948"
    underline-thickness="150"
    underline-position="-142"
    unicode-range="U+0020-U+FB02"
  />
<missing-glyph horiz-adv-x="2620" 
d="M1041 1359h546l308 -392l-64 -302q126 42 126 134q-20 24 -20 48q0 78 140 78q104 0 210 -140q68 -56 258 -112q0 -28 -20 -28q0 -14 6 -22q-6 -34 -56 -43q-18 -3 -42 -3q-44 0 -108 10q24 -20 136 -20q21 4 37 4t27 -4q0 -54 -204 -84l-126 8q114 -56 190 -56h42v-8
q-52 -70 -190 -70q-70 0 -160 36q0 -44 160 -98q0 -28 -76 -36q-44 0 -190 64q0 -34 70 -92q-5 -3 -17 -3q-36 0 -137 31l22 -62l-28 -8q-38 0 -134 106l-62 -294h-742l-84 294q-74 -94 -120 -106l-28 8l14 62q-86 -42 -132 -42l-14 22q63 38 63 76q0 4 -1 8
q-128 -64 -188 -64q-70 8 -70 36q154 52 154 95v3q-72 -36 -154 -36h-28q-110 0 -162 70v8h42q76 0 133 17t57 39l-140 -8q-190 34 -190 84l14 8l50 -8q47 -2 81 -2q67 0 81 8l-156 11t-76 33l6 20l-20 8v28q224 62 294 146q74 106 174 106q140 0 140 -78q0 -24 -20 -48
q22 -134 112 -134l-70 302zM1288 778q0 39 50 76q17 -37 43 -178q5 -30 5 -62q0 -116 -73 -250q115 101 178 199q51 80 51 155q0 17 -2 34q-14 91 -28 138q-14 48 -25 107l-163 -59q-16 -9 -36 -17v3q-6 70 -31 73q-53 -37 -176 -96q47 -14 47 -44v-252q0 -6 -11 -13
t-39 -21q48 -72 99 -72q23 0 47 15q75 46 120 60q-45 11 -50.5 23.5t-5.5 18.5v162z" />
    <glyph glyph-name=".notdef" horiz-adv-x="2620" 
d="M1041 1359h546l308 -392l-64 -302q126 42 126 134q-20 24 -20 48q0 78 140 78q104 0 210 -140q68 -56 258 -112q0 -28 -20 -28q0 -14 6 -22q-6 -34 -56 -43q-18 -3 -42 -3q-44 0 -108 10q24 -20 136 -20q21 4 37 4t27 -4q0 -54 -204 -84l-126 8q114 -56 190 -56h42v-8
q-52 -70 -190 -70q-70 0 -160 36q0 -44 160 -98q0 -28 -76 -36q-44 0 -190 64q0 -34 70 -92q-5 -3 -17 -3q-36 0 -137 31l22 -62l-28 -8q-38 0 -134 106l-62 -294h-742l-84 294q-74 -94 -120 -106l-28 8l14 62q-86 -42 -132 -42l-14 22q63 38 63 76q0 4 -1 8
q-128 -64 -188 -64q-70 8 -70 36q154 52 154 95v3q-72 -36 -154 -36h-28q-110 0 -162 70v8h42q76 0 133 17t57 39l-140 -8q-190 34 -190 84l14 8l50 -8q47 -2 81 -2q67 0 81 8l-156 11t-76 33l6 20l-20 8v28q224 62 294 146q74 106 174 106q140 0 140 -78q0 -24 -20 -48
q22 -134 112 -134l-70 302zM1288 778q0 39 50 76q17 -37 43 -178q5 -30 5 -62q0 -116 -73 -250q115 101 178 199q51 80 51 155q0 17 -2 34q-14 91 -28 138q-14 48 -25 107l-163 -59q-16 -9 -36 -17v3q-6 70 -31 73q-53 -37 -176 -96q47 -14 47 -44v-252q0 -6 -11 -13
t-39 -21q48 -72 99 -72q23 0 47 15q75 46 120 60q-45 11 -50.5 23.5t-5.5 18.5v162z" />
    <glyph glyph-name=".null" horiz-adv-x="200" 
 />
    <glyph glyph-name="nonmarkingreturn" horiz-adv-x="708" 
 />
    <glyph glyph-name="space" unicode=" " horiz-adv-x="708" 
 />
    <glyph glyph-name="space" unicode="&#xa0;" horiz-adv-x="708" 
 />
    <glyph glyph-name="exclam" unicode="!" 
d="M278.5 139q26.5 -26 26.5 -63q0 -38 -26.5 -64t-63.5 -26t-63.5 26t-26.5 64q0 37 26.5 63t63.5 26t63.5 -26zM258 1600v-1324h-90v1324h90z" />
    <glyph glyph-name="quotedbl" unicode="&#x22;" horiz-adv-x="575" 
d="M125 997v600h90v-600h-90zM360 997v600h90v-600h-90z" />
    <glyph glyph-name="numbersign" unicode="#" horiz-adv-x="1653" 
d="M763 985h230l111 445h90l-111 -445h445l-23 -90h-445l-57 -230h445l-23 -90h-445l-111 -445h-90l111 445h-230l-111 -445h-90l111 445h-445l23 90h445l57 230h-445l23 90h445l111 445h90zM970 895h-230l-57 -230h230z" />
    <glyph glyph-name="dollar" unicode="$" horiz-adv-x="1011" 
d="M556 856v-667q100 15 176 91q94 94 94 228q0 133 -94 227q-74 74 -176 121zM466 1413q-62 -10 -108 -57q-61 -60 -61 -146t60 -146q42 -42 109 -79v428zM466 891q-104 45 -170 112q-86 85 -86 207q0 119 86 205q72 73 170 84v163h90v-165q88 -15 155 -81q47 -46 67 -108
l-78 -31q-17 46 -51 80q-41 40 -93 53v-464q137 -53 236 -151q119 -119 119 -287q0 -170 -119 -289q-101 -101 -236 -117v-140h-90v139q-144 11 -251 118q-95 96 -115 226l82 30q12 -115 94 -196q81 -81 190 -92v704z" />
    <glyph glyph-name="percent" unicode="%" horiz-adv-x="1221" 
d="M1107 1314l-918 -1311l-74 51l918 1311zM474.5 1147.5q67.5 -67.5 67.5 -163.5t-67.5 -163.5t-163.5 -67.5t-163.5 67.5t-67.5 163.5t67.5 163.5t163.5 67.5t163.5 -67.5zM311 1128q-60 0 -102 -42t-42 -102t42 -102t102 -42q59 0 101.5 42t42.5 102t-42.5 102t-101.5 42
zM1074.5 547.5q67.5 -67.5 67.5 -163.5t-67.5 -163.5t-163.5 -67.5t-163.5 67.5t-67.5 163.5t67.5 163.5t163.5 67.5t163.5 -67.5zM911 528q-60 0 -102 -42t-42 -102t42 -102t102 -42q59 0 101.5 42t42.5 102t-42.5 102t-101.5 42z" />
    <glyph glyph-name="ampersand" unicode="&#x26;" horiz-adv-x="1304" 
d="M915 331q-13 5 -25 12q-48 27 -120 102q-48 44 -68 55q-22 12 -44 12q-13 0 -25 -3q-36 -10 -54 -42q-13 -22 -13 -44q0 -12 4 -25q10 -36 39 -52q19 -10 52 -10q18 0 41 3l-9 -82q-25 -7 -50 -7q-40 0 -78 21q-60 33 -79 104q-7 25 -7 48q0 44 24 86q37 64 107 83
q25 7 49 7q44 0 85 -24q40 -22 104 -89q58 -53 85 -68q30 -17 62 -17q18 0 36 5q52 14 79 61q17 31 17 63q0 17 -5 35q-14 51 -60 78q-28 16 -63 16q-25 0 -54 -8l-1 89q28 8 56 8q53 0 104 -29q78 -44 102 -131q8 -30 8 -58q0 -55 -29 -105q-44 -78 -132 -102
q-26 -7 -50 -8q-33 -108 -119 -194q-139 -140 -335 -140t-335 139t-139 336q0 196 137 342q94 101 244 151q-72 31 -147.5 111.5t-75.5 221.5q0 138 99 237.5t240 99.5q140 0 240 -99q55 -53 76 -119l-81 -32q-18 49 -59 90q-73 72 -176 72t-176 -72.5t-73 -176.5
q0 -103 70.5 -178t130.5 -98t150 -24v-84l-72 -2q-219 -41 -329 -161t-110 -279q0 -160 113 -273t273 -113q159 0 272 113q66 66 94 148z" />
    <glyph glyph-name="quotesingle" unicode="'" horiz-adv-x="340" 
d="M125 997v600h90v-600h-90z" />
    <glyph glyph-name="parenleft" unicode="(" horiz-adv-x="703" 
d="M603 1628q-135 -62 -244 -199q-181 -228 -181 -629q0 -402 181 -630q109 -137 244 -202v-85q-168 58 -299 223q-204 254 -204 694q0 439 204 694q131 165 299 223v-89z" />
    <glyph glyph-name="parenright" unicode=")" horiz-adv-x="703" 
d="M100 1717q168 -58 299 -223q204 -255 204 -694q0 -440 -204 -694q-131 -165 -299 -223v85q135 65 244 202q181 228 181 630q0 401 -181 629q-109 137 -244 199v89z" />
    <glyph glyph-name="asterisk" unicode="*" horiz-adv-x="800" 
d="M445 1384l174 122l52 -74l-193 -135l193 -135l-52 -74l-174 122v-213h-90v214l-175 -123l-52 74l193 135l-193 135l52 74l175 -123v214h90v-213z" />
    <glyph glyph-name="plus" unicode="+" horiz-adv-x="1050" 
d="M480 547h-355v90h355v355h90v-355h355v-90h-355v-355h-90v355z" />
    <glyph glyph-name="comma" unicode="," horiz-adv-x="379" 
d="M279 166l-185 -385h-84l103 385h166z" />
    <glyph glyph-name="hyphen" unicode="-" horiz-adv-x="840" 
d="M125 637h590v-90h-590v90z" />
    <glyph glyph-name="hyphen" unicode="&#xad;" horiz-adv-x="840" 
d="M125 637h590v-90h-590v90z" />
    <glyph glyph-name="period" unicode="." horiz-adv-x="380" 
d="M253.5 139q26.5 -26 26.5 -63q0 -38 -26.5 -64t-63.5 -26t-63.5 26t-26.5 64q0 37 26.5 63t63.5 26t63.5 -26z" />
    <glyph glyph-name="slash" unicode="/" horiz-adv-x="727" 
d="M674 1600h103l-725 -1600h-102z" />
    <glyph glyph-name="zero" unicode="0" horiz-adv-x="1250" 
d="M1079 1051q0 188 -133 320.5t-321 132.5t-321 -132.5t-133 -320.5v-530q0 -188 133 -320.5t321 -132.5t321 132.5t133 320.5v530zM1174 521q0 -227 -160.5 -388t-388.5 -161q-227 0 -388 161t-161 388v530q0 227 161 388t388 161q228 0 388.5 -161t160.5 -388v-530z" />
    <glyph glyph-name="one" unicode="1" horiz-adv-x="1250" 
d="M717 1600v-1600h-90v1442h-95l123 158h62z" />
    <glyph glyph-name="two" unicode="2" horiz-adv-x="1250" 
d="M367.5 433.5l292.5 219t236 214.5t109 277q0 159 -112 271t-271 112q-157 0 -270 -112q-96 -96 -110 -229l-91 33q23 150 134 262q140 141 337 141q198 0 337.5 -140t139.5 -338q0 -197 -137 -344q-93 -101 -220 -196l-286 -214t-198 -300h841v-90h-943
q46 310 211.5 433.5z" />
    <glyph glyph-name="three" unicode="3" horiz-adv-x="1250" 
d="M569 893l-75 2v90q93 1 152.5 24t129 97t69.5 176q0 103 -72 174.5t-174 71.5q-101 0 -174 -71q-40 -41 -59 -92l-86 34q22 70 77 123q101 100 242 100q143 0 242.5 -100.5t99.5 -239.5q0 -142 -76 -223.5t-142 -108.5q144 -48 239 -150q137 -147 137 -344
q0 -198 -139.5 -338t-337.5 -140q-197 0 -337 141q-111 112 -134 262l91 33q14 -133 110 -229q113 -112 270 -112q159 0 271 112t112 271q0 158 -109 277t-327 160z" />
    <glyph glyph-name="four" unicode="4" horiz-adv-x="1250" 
d="M833 1600h90v-1042h153v-90h-153v-468h-90v468h-660zM833 1406l-505 -848h505v848z" />
    <glyph glyph-name="five" unicode="5" horiz-adv-x="1250" 
d="M282 1103q50 16 112 30q64 11 124 11q110 0 211 -35q226 -77 336 -284q69 -129 69 -264q0 -84 -26 -169q-69 -225 -276 -336q-126 -67 -260 -67q-85 0 -173 27q-180 55 -282 194l64 71q85 -126 246 -175q72 -22 142 -22q112 0 218 56q173 92 231 280q22 72 22 142
q0 112 -57 219q-92 172 -280 238q-81 28 -178 28q-127 0 -282 -49l-72 63l184 507v32h500v-90h-425z" />
    <glyph glyph-name="six" unicode="6" horiz-adv-x="1250" 
d="M174 521q0 -188 133 -320.5t321 -132.5t321 132.5t133 320.5t-133 321t-321 133t-321 -133t-133 -321zM272 940q151 131 356 131q228 0 388.5 -161t160.5 -389q0 -227 -160.5 -388t-388.5 -161q-227 0 -388 161q-155 155 -161 371h-6q10 353 170 577t396 488l27 31h124
l-42 -50q-263 -294 -417 -513q-33 -46 -59 -97z" />
    <glyph glyph-name="seven" unicode="7" horiz-adv-x="1250" 
d="M827.5 1046q-262.5 -294 -416.5 -513t-164 -533h-94q10 353 170 577t396 488t275 445h-841v90h943q-6 -260 -268.5 -554z" />
    <glyph glyph-name="eight" unicode="8" horiz-adv-x="1250" 
d="M624 75h2q20 -2 40 -2q159 0 271 112t112 271q0 158 -109 277q-106 116 -315 158q-209 -42 -315 -158q-109 -119 -109 -277q0 -159 112 -271t271 -112q20 0 40 2zM625 -20q-20 -2 -41 -2q-198 0 -337.5 140t-139.5 338q0 197 137 344q95 102 239 150q-66 27 -142 108.5
t-76 223.5q0 139 99.5 239.5t242.5 100.5h36q143 0 242.5 -100.5t99.5 -239.5q0 -142 -76 -223.5t-142 -108.5q144 -48 239 -150q137 -147 137 -344q0 -198 -139.5 -338t-337.5 -140q-20 0 -41 2zM624 1527q-8 1 -17 1q-102 0 -174 -71.5t-72 -174.5q0 -102 69.5 -176
t128.5 -97q30 -11 66 -17q36 6 66 17q59 23 128.5 97t69.5 176q0 103 -72 174.5t-174 71.5q-9 0 -17 -1h-2z" />
    <glyph glyph-name="nine" unicode="9" horiz-adv-x="1250" 
d="M1076 1051q0 188 -133 320.5t-321 132.5t-321 -132.5t-133 -320.5t133 -321t321 -133t321 133t133 321zM978 632q-151 -131 -356 -131q-228 0 -388.5 161t-160.5 389q0 227 160.5 388t388.5 161q227 0 388 -161q155 -155 161 -371h6q-10 -353 -170 -577t-396 -488
l-27 -31h-124l42 50q263 294 417 513q33 46 59 97z" />
    <glyph glyph-name="colon" unicode=":" 
d="M278.5 139q26.5 -26 26.5 -63q0 -38 -26.5 -64t-63.5 -26t-63.5 26t-26.5 64q0 37 26.5 63t63.5 26t63.5 -26zM278.5 756q26.5 -26 26.5 -63q0 -38 -26.5 -64t-63.5 -26t-63.5 26t-26.5 64q0 37 26.5 63t63.5 26t63.5 -26z" />
    <glyph glyph-name="semicolon" unicode=";" horiz-adv-x="477" 
d="M352 166l-185 -385h-84l103 385h166zM278.5 756q26.5 -26 26.5 -63q0 -38 -26.5 -64t-63.5 -26t-63.5 26t-26.5 64q0 37 26.5 63t63.5 26t63.5 -26z" />
    <glyph glyph-name="semicolon" unicode="&#x37e;" horiz-adv-x="477" 
d="M352 166l-185 -385h-84l103 385h166zM278.5 756q26.5 -26 26.5 -63q0 -38 -26.5 -64t-63.5 -26t-63.5 26t-26.5 64q0 37 26.5 63t63.5 26t63.5 -26z" />
    <glyph glyph-name="less" unicode="&#x3c;" horiz-adv-x="1349" 
d="M1249 145l-1149 418l1149 418v-96l-886 -322l886 -322v-96z" />
    <glyph glyph-name="equal" unicode="=" horiz-adv-x="1050" 
d="M125 797h800v-90h-800v90zM125 477h800v-90h-800v90z" />
    <glyph glyph-name="greater" unicode="&#x3e;" horiz-adv-x="1349" 
d="M100 241l886 322l-886 322v96l1149 -418l-1149 -418v96z" />
    <glyph glyph-name="question" unicode="?" horiz-adv-x="956" 
d="M390 589q-40 -82 -40 -166q0 -64 23 -129l-83 -29q-28 80 -28 158q0 104 49 204q80 167 241 289q95 92 136 178q26 53 26 108q0 41 -14 82q-35 98 -128 143q-53 25 -107 25q-41 0 -83 -15q-97 -34 -142 -126q-25 -52 -25 -105l-88 4v8q0 65 32 129q62 127 194 173
q58 20 114 20q74 0 146 -34q126 -61 172 -192q20 -57 20 -113q0 -74 -35 -146q-61 -127 -203 -237q-117 -103 -177 -229zM389.5 139q26.5 -26 26.5 -63q0 -38 -26.5 -64t-63.5 -26t-63.5 26t-26.5 64q0 37 26.5 63t63.5 26t63.5 -26z" />
    <glyph glyph-name="at" unicode="@" horiz-adv-x="1626" 
d="M1088 483v132q-17 75 -74 132q-82 83 -198 83t-197.5 -82.5t-81.5 -199.5q0 -115 81.5 -197t197.5 -82t198 82q57 57 74 132zM1086 313q-121 -127 -272 -127q-150 0 -257 107t-107 255q0 151 107 258t257 107q151 0 272 -127v114h81v-648q18 -43 55 -43q44 0 122 110.5
t78 227.5q0 251 -178.5 429.5t-429.5 178.5t-428.5 -178.5t-177.5 -429.5t177.5 -428.5t428.5 -177.5q172 0 251 49l57 -60q-120 -70 -308 -70q-284 0 -486.5 202t-202.5 485q0 284 202.5 486.5t486.5 202.5q285 0 486 -202.5t201 -486.5q0 -127 -92.5 -272t-204.5 -145
q-13 0 -25 2q-86 18 -93 100v81z" />
    <glyph glyph-name="A" unicode="A" horiz-adv-x="1291" 
d="M890 703l-244 671l-244 -671h488zM923 613h-554l-223 -613h-96l596 1637l595 -1637h-95z" />
    <glyph glyph-name="B" unicode="B" horiz-adv-x="1066" 
d="M434 1600q123 0 210.5 -87t87.5 -210q0 -124 -127 -231q112 -23 211 -132q160 -161 160 -389q0 -227 -160 -393q-149 -154 -356 -157v-1h-310v1600h284zM240 1005v-915h220v-1q167 11 288 137q133 137 133 325t-133 321t-321 133h-187zM240 1510v-409h217q75 7 128 56
q61 56 61 146t-61 148.5t-151 58.5h-194z" />
    <glyph glyph-name="C" unicode="C" horiz-adv-x="1595" 
d="M1427 255l68 -61q-234 -213 -551 -213q-340 0 -579.5 239.5t-239.5 579.5q0 339 239.5 579t579.5 240q317 0 551 -213l-68 -62q-206 183 -483 183q-301 0 -514 -213t-213 -514q0 -302 213 -515t514 -213q277 0 483 183z" />
    <glyph glyph-name="D" unicode="D" horiz-adv-x="1199" 
d="M240 1506v-1413h7q356 0 547 192q213 213 213 515q0 301 -213 515q-191 191 -547 191h-7zM240 1598h7q395 0 612 -218q240 -241 240 -580q0 -340 -240 -580q-217 -218 -612 -218h-7v-2h-90v1600h90v-2z" />
    <glyph glyph-name="E" unicode="E" horiz-adv-x="1075" 
d="M950 1600v-90h-710v-665h710v-90h-710v-665h710v-90h-800v1600h800z" />
    <glyph glyph-name="F" unicode="F" horiz-adv-x="975" 
d="M850 1600v-90h-610v-665h610v-90h-610v-755h-90v1600h700z" />
    <glyph glyph-name="G" unicode="G" horiz-adv-x="1620" 
d="M1489 199q-228 -218 -545 -218q-340 0 -579.5 239.5t-239.5 579.5q0 339 239.5 579t579.5 240q317 0 551 -213l-68 -62q-206 183 -483 183q-301 0 -514 -213t-213 -514q0 -302 213 -515t514 -213q258 0 455 159v488h90v-520z" />
    <glyph glyph-name="H" unicode="H" horiz-adv-x="1150" 
d="M240 717v-717h-90v1600h90v-793h670v793h90v-1600h-90v717h-670z" />
    <glyph glyph-name="I" unicode="I" 
d="M260 1600v-1600h-90v1600h90z" />
    <glyph glyph-name="J" unicode="J" horiz-adv-x="857" 
d="M702 304q0 -152 -80 -232q-85 -86 -206 -86t-206 85.5t-85 187.5l59 23q20 -108 85 -162q54 -46 122 -46q12 0 25 2q83 0 143 59q53 53 53 179v1286h90v-1296z" />
    <glyph glyph-name="K" unicode="K" horiz-adv-x="1097" 
d="M240 775v-775h-90v1600h90v-681l511 681h116l-480 -644l620 -956h-111l-568 884z" />
    <glyph glyph-name="L" unicode="L" horiz-adv-x="950" 
d="M150 0v1600h90v-1510h620v-90h-710z" />
    <glyph glyph-name="M" unicode="M" horiz-adv-x="1707" 
d="M253 1600l601 -1040l600 1040h103l-4 -7v-1593h-90v1437l-609 -1054l-610 1054v-1437h-90v1593l-4 7h103z" />
    <glyph glyph-name="N" unicode="N" horiz-adv-x="1311" 
d="M150 1600h99l822 -1423v1423h90v-1600h-90l-831 1437v-1437h-90v1600z" />
    <glyph glyph-name="O" unicode="O" horiz-adv-x="1892" 
d="M1526.5 1382.5q240.5 -240.5 240.5 -580.5t-240.5 -580.5t-580.5 -240.5t-580.5 240.5t-240.5 580.5t240.5 580.5t580.5 240.5t580.5 -240.5zM946 1531q-302 0 -515.5 -213.5t-213.5 -515.5t213.5 -516t515.5 -214t515.5 214t213.5 516t-213.5 515.5t-515.5 213.5z" />
    <glyph glyph-name="P" unicode="P" horiz-adv-x="1089" 
d="M240 555v-555h-90v1600h420q183 -25 311 -153q153 -153 153 -369q0 -217 -153 -370t-369 -153h-272zM240 1509v-863h272q178 0 304.5 126.5t126.5 305.5t-126.5 305t-304.5 126h-272z" />
    <glyph glyph-name="Q" unicode="Q" horiz-adv-x="1892" 
d="M946 1531q-302 0 -515.5 -213.5t-213.5 -515.5t213.5 -516t515.5 -214t515.5 214t213.5 516t-213.5 515.5t-515.5 213.5zM937 -19q-334 3 -571 241q-241 240 -241 580t240.5 580.5t580.5 240.5t580.5 -240.5t240.5 -580.5t-240 -580q-174 -174 -399 -222q5 -2 10 -3
q73 -20 197 -98q84 -45 118 -55q21 -6 41 -6q36 0 70 19q53 30 69 88q5 16 6 32h91q-2 -27 -10 -55q-27 -94 -112 -142q-54 -31 -112 -31q-33 0 -67 10q-60 16 -170 86q-102 54 -145 66q-29 8 -57 8q-50 0 -96 -26q-74 -42 -96 -123q-4 -12 -5 -24h-91q2 24 9 49
q33 116 139 176z" />
    <glyph glyph-name="R" unicode="R" horiz-adv-x="1089" 
d="M240 1509v-863h272q178 0 304.5 126.5t126.5 305.5t-126.5 305t-304.5 126h-272zM539 556q-13 -1 -27 -1h-272v-555h-90v1600h420q183 -25 311 -153q153 -153 153 -369q0 -217 -153 -370q-106 -106 -243 -139l369 -569h-111z" />
    <glyph glyph-name="S" unicode="S" horiz-adv-x="1042" 
d="M548 886q-171 57 -270 156t-99 240q0 138 99 237.5t240 99.5q140 0 240 -99q55 -53 76 -119l-81 -32q-18 49 -59 90q-73 72 -176 72t-176 -72.5t-73 -176.5q0 -103 73 -176q68 -67 188 -123q192 -62 323 -193q139 -138 139 -334q0 -197 -139 -336t-335 -139t-335 140
q-111 111 -133 258l85 31q14 -130 111 -227q113 -113 272 -113q160 0 273 113t113 273q0 159 -113 272q-99 99 -243 158z" />
    <glyph glyph-name="T" unicode="T" horiz-adv-x="1000" 
d="M545 1510v-1510h-90v1510h-405v90h900v-90h-405z" />
    <glyph glyph-name="U" unicode="U" horiz-adv-x="1345" 
d="M1104 1600h91v-1150q-25 -183 -153 -311q-153 -153 -369 -153q-217 0 -370 153t-153 369v1092h91v-1092q0 -178 126.5 -304.5t305.5 -126.5t305 126.5t126 304.5v1092z" />
    <glyph glyph-name="V" unicode="V" horiz-adv-x="1291" 
d="M145 1600l500 -1374l500 1374h96l-596 -1637l-595 1637h95z" />
    <glyph glyph-name="W" unicode="W" horiz-adv-x="1672" 
d="M791 240v1360h90v-1360q23 -43 57 -77q90 -87 214 -87t214.5 88.5t90.5 213.5v1222h90v-1230q-3 -156 -115 -268q-116 -116 -280 -116q-163 0 -279 115q-21 20 -37 41q-16 -21 -37 -41q-116 -115 -279 -115q-164 0 -279 116q-113 112 -116 268v1230h90v-1222
q0 -125 90.5 -213.5t214.5 -88.5t214 87q34 34 57 77z" />
    <glyph glyph-name="X" unicode="X" horiz-adv-x="1218" 
d="M50 0l507 879l-416 721h103l364 -632l366 632h103l-418 -721l509 -879h-103l-457 790l-456 -790h-102z" />
    <glyph glyph-name="Y" unicode="Y" horiz-adv-x="1291" 
d="M600 647l-550 953h103l492 -853l493 853h103l-551 -953v-647h-90v647z" />
    <glyph glyph-name="Z" unicode="Z" horiz-adv-x="1327" 
d="M1022 1510h-872v90h1027l-873 -1510h873v-90h-1027z" />
    <glyph glyph-name="bracketleft" unicode="[" horiz-adv-x="560" 
d="M215 -285h220v-90h-310v1975h310v-90h-220v-1795z" />
    <glyph glyph-name="backslash" unicode="\" horiz-adv-x="727" 
d="M777 0h-102l-725 1600h103z" />
    <glyph glyph-name="bracketright" unicode="]" horiz-adv-x="560" 
d="M345 1510h-220v90h310v-1975h-310v90h220v1795z" />
    <glyph glyph-name="asciicircum" unicode="^" horiz-adv-x="921" 
d="M513 1600l308 -534h-104l-256 443l-256 -443h-105l309 534h104z" />
    <glyph glyph-name="underscore" unicode="_" horiz-adv-x="1050" 
d="M25 -30h1000v-90h-1000v90z" />
    <glyph glyph-name="grave" unicode="`" horiz-adv-x="629" 
d="M316 1287l163 -187h-84l-245 187h166z" />
    <glyph glyph-name="a" unicode="a" horiz-adv-x="1360" 
d="M1210 0h-90v200q-26 -35 -57 -67q-161 -161 -389 -161q-227 0 -388 161t-161 388q0 228 161 389t388 161q228 0 389 -161q31 -32 57 -67v139h90v-982zM1120 432v178q-25 132 -125 232q-133 133 -321 133t-321 -133t-133 -321t133 -320.5t321 -132.5t321 133
q100 100 125 231z" />
    <glyph glyph-name="b" unicode="b" horiz-adv-x="1359" 
d="M150 1600h90v-756q25 34 57 66q161 161 388 161q228 0 388.5 -161t160.5 -389q0 -227 -160.5 -388t-388.5 -161q-227 0 -388 161q-32 32 -57 66v-199h-90v1600zM240 615v-188q26 -128 124 -226q133 -133 321 -133t321 132.5t133 320.5t-133 321t-321 133t-321 -133
q-98 -98 -124 -227z" />
    <glyph glyph-name="c" unicode="c" horiz-adv-x="1177" 
d="M992 236l95 -34q-26 -36 -59 -69q-161 -161 -389 -161q-227 0 -388 161t-161 389q0 227 161 388t388 161q228 0 389 -161q33 -33 59 -68l-95 -35q-15 18 -32 36q-133 132 -321 132q-187 0 -320 -132.5t-133 -320.5t133 -321t320 -133q188 0 321 133q17 17 32 35z" />
    <glyph glyph-name="d" unicode="d" horiz-adv-x="1360" 
d="M1210 0h-90v200q-26 -35 -57 -67q-161 -161 -389 -161q-227 0 -388 161t-161 388q0 228 161 389t388 161q228 0 389 -161q31 -32 57 -67v757h90v-1600zM1120 432v178q-25 132 -125 232q-133 133 -321 133t-321 -133t-133 -321t133 -320.5t321 -132.5t321 133
q100 100 125 231z" />
    <glyph glyph-name="e" unicode="e" horiz-adv-x="1177" 
d="M337 184q127 -116 302 -116q188 0 321 133q17 17 32 35l95 -34q-26 -36 -59 -69q-161 -161 -389 -161q-227 0 -388 161t-161 389q0 227 161 388t388 161q195 0 341 -117q24 -20 48 -44q9 -9 17 -18l-68 -68zM911 885q-117 90 -272 90q-187 0 -320 -132.5t-133 -320.5
q0 -155 90 -272z" />
    <glyph glyph-name="f" unicode="f" horiz-adv-x="523" 
d="M280 892v-892h-90v892h-100v90h100v266q6 111 85 191q82 76 189 76q56 0 118 -21l-28 -80q-42 18 -81 18q-71 0 -134 -57q-56 -55 -59 -133v-260h200v-90h-200z" />
    <glyph glyph-name="g" unicode="g" horiz-adv-x="1364" 
d="M1119 615q-26 129 -124 227q-133 133 -321 133t-321 -133t-133 -321t133 -321t321 -133t321 133q97 97 124 225v190zM1117 195q-25 -32 -54 -62q-161 -161 -389 -161q-227 0 -388 161t-161 388q0 228 161 388.5t388 160.5q228 0 389 -160q31 -32 57 -67v139h90v-763
q0 -221 -157 -378q-161 -161 -388 -161q-228 0 -389 161q-33 33 -59 69l95 34q15 -18 32 -35q133 -133 321 -133q187 0 320 133q121 121 132 286z" />
    <glyph glyph-name="h" unicode="h" horiz-adv-x="1059" 
d="M150 1600h90v-669q114 110 274 110q174 0 283 -109t112 -275v-657h-90v649q0 125 -90.5 213.5t-214.5 88.5t-214 -87q-40 -40 -60 -83v-781h-90v1600z" />
    <glyph glyph-name="i" unicode="i" 
d="M260 982v-982h-90v982h90zM278.5 1304q26.5 -26 26.5 -63q0 -38 -26.5 -64t-63.5 -26t-63.5 26t-26.5 64q0 37 26.5 63t63.5 26t63.5 -26z" />
    <glyph glyph-name="j" unicode="j" horiz-adv-x="455" 
d="M49 -138q121 14 121 136v984h90v-982q0 -211 -211 -228v90zM278.5 1304q26.5 -26 26.5 -63q0 -38 -26.5 -64t-63.5 -26t-63.5 26t-26.5 64q0 37 26.5 63t63.5 26t63.5 -26z" />
    <glyph glyph-name="k" unicode="k" horiz-adv-x="823" 
d="M629 982l-242 -300l386 -682h-112l-333 610l-88 -109v-501h-90v1400h90v-755l273 337h116z" />
    <glyph glyph-name="l" unicode="l" horiz-adv-x="390" 
d="M240 1600v-1600h-90v1600h90z" />
    <glyph glyph-name="m" unicode="m" horiz-adv-x="1375" 
d="M150 982h90v-23q84 81 201 81q121 0 206 -85q23 -23 40 -50q17 26 41 50q85 85 206 85t206 -85q81 -82 85 -197v-758h-90v758h1q-4 78 -59 133q-60 59 -143 59t-142.5 -59t-59.5 -147v-744h-90v758h1q-4 78 -59 133q-60 59 -143 59t-142 -59q-52 -51 -59 -125v-766h-90
v982z" />
    <glyph glyph-name="n" unicode="n" horiz-adv-x="1071" 
d="M240 763v-763h-90v982h90v-63q123 122 286 122q174 0 283 -109t112 -275v-657h-90v649q0 125 -90.5 213.5t-214.5 88.5t-214 -87q-49 -49 -72 -101z" />
    <glyph glyph-name="o" unicode="o" horiz-adv-x="1278" 
d="M639 1071q228 0 388.5 -161t160.5 -389q0 -227 -160.5 -388t-388.5 -161q-227 0 -388 161t-161 388q0 228 161 389t388 161zM318 842q-133 -133 -133 -321t133 -320.5t321 -132.5t321 132.5t133 320.5t-133 321t-321 133t-321 -133z" />
    <glyph glyph-name="p" unicode="p" horiz-adv-x="1334" 
d="M150 982h90v-138q25 34 57 66q161 160 388 160q228 0 388.5 -160.5t160.5 -388.5q0 -227 -160.5 -388t-388.5 -161q-227 0 -388 161q-32 32 -57 66v-574h-90v1357zM240 615v-188q26 -129 124 -227q133 -133 321 -133t321 133t133 321t-133 321t-321 133t-321 -133
q-98 -98 -124 -227z" />
    <glyph glyph-name="q" unicode="q" horiz-adv-x="1335" 
d="M1185 -375h-90v575q-26 -35 -57 -67q-161 -161 -389 -161q-227 0 -388 161t-161 388q0 228 161 388.5t388 160.5q228 0 389 -160q31 -32 57 -67v139h90v-1357zM1095 432v178q-25 132 -125 232q-133 133 -321 133t-321 -133t-133 -321t133 -321t321 -133t321 133
q100 100 125 232z" />
    <glyph glyph-name="r" unicode="r" horiz-adv-x="599" 
d="M150 982h90v-179q28 40 65 77q119 119 244 125v-98q-85 -4 -176 -95q-128 -127 -133 -305v-507h-90v982z" />
    <glyph glyph-name="s" unicode="s" horiz-adv-x="802" 
d="M420 505q-115 62 -159 106q-69 69 -69 166q0 98 69 167.5t166 69.5q98 0 162 -64q62 -63 62 -143v-5l-78 -31q-10 76 -47.5 114t-98.5 38q-60 0 -103 -42.5t-43 -103.5q0 -60 43 -103q25 -25 106 -76q128 -70 182 -124q85 -86 85 -205q0 -122 -85 -207.5t-206 -85.5
t-206 85.5t-85 187.5l89 23q0 -88 59.5 -147t142.5 -59t142.5 59t59.5 144q0 83 -59 142q-32 32 -129 94z" />
    <glyph glyph-name="t" unicode="t" horiz-adv-x="670" 
d="M290 982v418h90v-418h200v-90h-200v-892h-90v892h-200v90h200z" />
    <glyph glyph-name="u" unicode="u" horiz-adv-x="1099" 
d="M555 -14q-184 0 -293 109t-112 275v614h90v-606q0 -125 91 -213q90 -89 223 -89q124 0 214.5 88.5t90.5 213.5v606h90v-614q-3 -166 -112 -275t-282 -109z" />
    <glyph glyph-name="v" unicode="v" horiz-adv-x="1064" 
d="M532 164l378 818h104l-482 -1009l-482 1009h104z" />
    <glyph glyph-name="w" unicode="w" horiz-adv-x="1375" 
d="M642 260v722h90v-700q0 -88 59.5 -147t142.5 -59t143 59q55 55 59 133h-1v714h90v-714q-4 -115 -85 -196q-85 -86 -206 -86t-206 86q-23 23 -40 48q-17 -25 -41 -48q-85 -86 -206 -86t-206 86q-81 81 -85 196v714h90v-714h-1q4 -78 60 -133q59 -59 142 -59t143 59
q51 51 58 125z" />
    <glyph glyph-name="x" unicode="x" horiz-adv-x="871" 
d="M741 982l-253 -438l-3 -5l3 -5l308 -534h-104l-256 443l-256 -443h-105l309 534l3 5l-3 5l-253 438h104l201 -347l200 347h105z" />
    <glyph glyph-name="y" unicode="y" horiz-adv-x="1005" 
d="M503 88l-222 -463h-88l265 556l-383 801h102l326 -704l326 704h101l-427 -895v1z" />
    <glyph glyph-name="z" unicode="z" horiz-adv-x="1000" 
d="M657 878h-507v90h662l-52 -90l-456 -788h546v-90h-700l52 90z" />
    <glyph glyph-name="braceleft" unicode="{" horiz-adv-x="866" 
d="M125 653q9 -3 20 -3q46 0 123 44q115 66 151 195q19 72 19 152q0 44 -6 90q-14 72 -14 135q0 67 16 126q30 112 133 170q65 38 136 38q19 0 38 -3v-75q-18 3 -36 3q-52 0 -101 -27q-75 -43 -97 -126q-15 -55 -15 -125q0 -30 3 -64q16 -76 16 -149q0 -85 -21 -165
q-44 -158 -185 -239q-17 -9 -35 -17l35 -18q141 -81 185 -239q21 -80 21 -165q0 -73 -16 -149q-3 -34 -3 -64q0 -70 15 -125q22 -83 97 -125q51 -28 104 -28q16 0 33 2v-74q-19 -3 -38 -3q-71 0 -136 38q-103 58 -133 171q-16 59 -16 126q0 63 14 134q6 46 6 90
q0 80 -19 152q-36 129 -151 195q-77 44 -123 44q-11 0 -20 -3v81z" />
    <glyph glyph-name="bar" unicode="|" horiz-adv-x="390" 
d="M240 1600v-1975h-90v1975h90z" />
    <glyph glyph-name="braceright" unicode="}" horiz-adv-x="866" 
d="M741 572q-9 3 -20 3q-46 0 -123 -44q-115 -66 -151 -195q-19 -72 -19 -152q0 -44 6 -90q14 -71 14 -134q0 -67 -16 -126q-30 -113 -133 -171q-65 -38 -136 -38q-19 0 -38 3v74q17 -2 33 -2q53 0 104 28q75 42 97 125q15 55 15 125q0 30 -3 64q-16 76 -16 149q0 85 21 165
q44 158 185 239l35 18q-18 8 -35 17q-141 81 -185 239q-21 80 -21 165q0 73 16 149q3 34 3 64q0 70 -15 125q-22 83 -97 126q-49 27 -101 27q-18 0 -36 -3v75q19 3 38 3q71 0 136 -38q103 -58 133 -170q16 -59 16 -126q0 -63 -14 -135q-6 -46 -6 -90q0 -80 19 -152
q36 -129 151 -195q77 -44 123 -44q11 0 20 3v-81z" />
    <glyph glyph-name="asciitilde" unicode="~" horiz-adv-x="1277" 
d="M638 861q188 -109 273 -109q15 0 27 3q77 23 108 100q15 38 15 77l91 -14q-4 -48 -23 -97q-46 -111 -156 -148q-25 -8 -56 -8q-105 0 -278 99q-190 109 -274 109q-14 0 -26 -3q-77 -23 -108 -100q-15 -39 -16 -77l-90 14q2 48 22 97q46 111 157 148q25 8 55 8
q106 0 279 -99z" />
    <glyph glyph-name="exclamdown" unicode="&#xa1;" 
d="M151.5 1465q-26.5 26 -26.5 63q0 38 26.5 64t63.5 26t63.5 -26t26.5 -64q0 -37 -26.5 -63t-63.5 -26t-63.5 26zM172 4v1324h90v-1324h-90z" />
    <glyph glyph-name="cent" unicode="&#xa2;" horiz-adv-x="1013" 
d="M551 705q143 2 246 105q13 13 28 31l87 -32q-26 -35 -52 -62q-129 -129 -309 -131v-154h-90v161q-131 23 -231 124q-131 130 -131 315q0 184 131 315q100 100 231 124v161h90v-154q180 -2 309 -131q26 -27 52 -61l-87 -33q-15 18 -28 32q-103 102 -246 104v-714z
M461 1410q-95 -22 -168 -95q-105 -105 -105 -253t105 -252q73 -74 168 -96v696z" />
    <glyph glyph-name="sterling" unicode="&#xa3;" horiz-adv-x="1130" 
d="M448 555q3 -21 5 -43t2 -44q0 -204 -170 -405q125 45 246 45q72 0 143 -16q99 -23 188 -23q80 0 151 18l17 -89q-81 -20 -168 -20q-89 0 -183 22q-98 21 -173 21q-68 0 -117 -17q-104 -38 -202 -87l-87 103q124 110 156 149q108 128 108 292q0 22 -2 44q-2 25 -6 50h-228
v90h209q-26 95 -75 189q-111 180 -125 343q-2 19 -2 38q0 139 92 249q103 123 266 138q19 1 38 1q139 0 250 -92q124 -105 139 -267q3 -23 3 -44q0 -63 -22 -114l-86 29q15 43 15 95q0 14 -1 28q-12 123 -107 203q-84 70 -190 70q-14 0 -28 -1q-124 -11 -204 -106
q-70 -84 -70 -189q0 -15 1 -30q10 -113 78 -256q86 -138 122 -284h197v-90h-180z" />
    <glyph glyph-name="currency" unicode="&#xa4;" horiz-adv-x="1112" 
d="M303 1462q108 89 253 89t253 -89l139 139l64 -64l-139 -139q89 -108 89 -253t-89 -253l139 -139l-64 -64l-139 139q-108 -89 -253 -89t-253 89l-139 -139l-64 64l139 139q-89 108 -89 253t89 253l-139 139l64 64zM745 1398q-81 63 -189 63t-189 -63q-18 -13 -34 -29
q-17 -17 -30 -35q-63 -81 -63 -189t63 -189q13 -18 30 -34q16 -17 34 -30q81 -63 189 -63t189 63q18 13 35 30q16 16 29 34q63 81 63 189t-63 189q-13 18 -29 35q-17 16 -35 29z" />
    <glyph glyph-name="yen" unicode="&#xa5;" horiz-adv-x="1291" 
d="M650 755l488 845h103l-489 -845h294v-90h-346l-10 -18v-102h356v-90h-356v-455h-90v455h-354v90h354v102l-10 18h-344v90h292l-488 845h103l487 -845h10z" />
    <glyph glyph-name="brokenbar" unicode="&#xa6;" horiz-adv-x="390" 
d="M240 1600v-849h-90v849h90zM240 474v-849h-90v849h90z" />
    <glyph glyph-name="section" unicode="&#xa7;" horiz-adv-x="1158" 
d="M881 345q11 14 26 29q63 63 63 223q0 159 -113 272q-99 99 -243 158q-171 57 -270 156q-43 43 -67 94q-11 -14 -26 -29q-63 -63 -63 -223q0 -159 113 -272q99 -99 243 -158q171 -57 270 -156q43 -43 67 -94zM250 1362q-5 29 -5 61q0 138 99 237.5t240 99.5q140 0 240 -99
q55 -53 76 -119l-81 -32q-18 49 -59 90q-73 72 -176 72t-176 -72.5t-73 -176.5q0 -103 73 -176q68 -67 188 -123q192 -62 323 -193q139 -138 139 -334q0 -197 -89 -286q-36 -36 -61 -51q5 -29 5 -61q0 -138 -99 -237.5t-240 -99.5q-140 0 -240 99q-55 53 -76 119l81 32
q18 -49 59 -90q73 -72 176 -72t176 72.5t73 176.5q0 103 -73 176q-68 67 -188 123q-192 62 -323 193q-139 138 -139 334q0 197 89 286q36 36 61 51z" />
    <glyph glyph-name="dieresis" unicode="&#xa8;" horiz-adv-x="730" 
d="M278.5 1304q26.5 -26 26.5 -63q0 -38 -26.5 -64t-63.5 -26t-63.5 26t-26.5 64q0 37 26.5 63t63.5 26t63.5 -26zM578.5 1304q26.5 -26 26.5 -63q0 -38 -26.5 -64t-63.5 -26t-63.5 26t-26.5 64q0 37 26.5 63t63.5 26t63.5 -26z" />
    <glyph glyph-name="copyright" unicode="&#xa9;" horiz-adv-x="1405" 
d="M917 442l68 -25q-20 -28 -40 -48q-97 -97 -234 -97t-234 97t-97 234t97 234t234 97t234 -97q20 -20 40 -48l-68 -25q-11 14 -21 25q-77 76 -185 76t-185 -76.5t-77 -185.5q0 -108 77 -185t185 -77t185 77q10 10 21 24zM1124 1028q176 -176 176 -425t-176 -425t-424 -176
q-249 0 -425 176t-176 425t176 425t425 176q248 0 424 -176zM700 1133q-220 0 -375 -155t-155 -375q0 -219 155 -374.5t375 -155.5q219 0 374 155.5t155 374.5q0 220 -155 375t-374 155z" />
    <glyph glyph-name="guillemotleft" unicode="&#xab;" horiz-adv-x="980" 
d="M444 462l436 460v-104l-331 -356l331 -356v-105zM100 462l429 460v-104l-331 -356l331 -356v-105z" />
    <glyph glyph-name="registered" unicode="&#xae;" horiz-adv-x="1161" 
d="M467 1371v-378h116q78 0 133.5 55.5t55.5 133.5t-55.5 133.5t-133.5 55.5h-116zM730 721l-138 215h-125v-155h-55v644h198q86 -12 146 -72q71 -71 71 -172q0 -102 -71 -174q-50 -49 -104 -62l130 -200q53 30 98 74q124 125 124 300q0 176 -124 300t-299 124
q-176 0 -300 -124t-124 -300q0 -175 124 -300q59 -58 129 -89q28 -13 58 -21q53 -14 113 -14q78 0 149 26zM581 638q-200 0 -340.5 141t-140.5 340t140.5 340t340.5 141q198 0 339 -141t141 -340t-141 -340q-49 -49 -137.5 -95t-201.5 -46z" />
    <glyph glyph-name="macron" unicode="&#xaf;" horiz-adv-x="840" 
d="M125 1327h590v-90h-590v90z" />
    <glyph glyph-name="degree" unicode="&#xb0;" horiz-adv-x="762" 
d="M544.5 1532.5q67.5 -67.5 67.5 -163.5t-67.5 -163.5t-163.5 -67.5t-163.5 67.5t-67.5 163.5t67.5 163.5t163.5 67.5t163.5 -67.5zM381 1529q-66 0 -113 -47t-47 -113t47 -113t113 -47t113 47t47 113t-47 113t-113 47z" />
    <glyph glyph-name="plusminus" unicode="&#xb1;" horiz-adv-x="1050" 
d="M480 547h-355v90h355v355h90v-355h355v-90h-355v-355h-90v355zM125 90h800v-90h-800v90z" />
    <glyph glyph-name="acute" unicode="&#xb4;" horiz-adv-x="629" 
d="M479 1187l-245 -187h-84l163 187h166z" />
    <glyph glyph-name="mu" unicode="&#xb5;" horiz-adv-x="1046" 
d="M808 111l-11 -11q-109 -109 -283 -109q-160 0 -274 110v-476h-90v1357h90v-731q20 -43 60 -83q90 -87 214 -87t215 89q58 57 79 130v682h88v-982h-88v111z" />
    <glyph glyph-name="paragraph" unicode="&#xb6;" horiz-adv-x="1135" 
d="M815 1602v-1977h-90v1021h-152q-216 0 -369 153t-153 370q0 216 153 369q128 128 311 153h80v1h491v-90h-88v-1977h-90v1977h-93z" />
    <glyph glyph-name="periodcentered" unicode="&#xb7;" horiz-adv-x="403" 
d="M255.5 854q22.5 -22 22.5 -54t-22.5 -54t-53.5 -22q-32 0 -54.5 22t-22.5 54t22.5 54t54.5 22q31 0 53.5 -22z" />
    <glyph glyph-name="periodcentered" unicode="&#x2219;" horiz-adv-x="403" 
d="M255.5 854q22.5 -22 22.5 -54t-22.5 -54t-53.5 -22q-32 0 -54.5 22t-22.5 54t22.5 54t54.5 22q31 0 53.5 -22z" />
    <glyph glyph-name="cedilla" unicode="&#xb8;" horiz-adv-x="582" 
d="M299 0l-12 -35q108 0 133 -42q11 -20 11 -41q0 -25 -14 -53q-28 -53 -74 -69q-39 -13 -82 -13h-16q-52 3 -82 23l41 37q11 -4 34 -6h9q20 0 42 6q28 8 41 31q6 13 6 23q0 9 -4 16q-25 28 -57 32q-12 1 -29 1q-29 0 -74 -4l57 94h70z" />
    <glyph glyph-name="guillemotright" unicode="&#xbb;" horiz-adv-x="980" 
d="M100 1v105l331 356l-331 356v104l436 -460zM451 1v105l331 356l-331 356v104l429 -460z" />
    <glyph glyph-name="questiondown" unicode="&#xbf;" horiz-adv-x="956" 
d="M566 1015q40 82 40 166q0 64 -23 129l83 29q28 -80 28 -158q0 -104 -49 -204q-80 -167 -241 -289q-95 -92 -136 -178q-26 -53 -26 -108q0 -41 14 -82q35 -98 128 -143q53 -25 107 -25q41 0 83 15q97 34 142 126q25 52 25 105l88 -4v-8q0 -65 -32 -129q-62 -127 -194 -173
q-58 -20 -114 -20q-74 0 -146 34q-126 61 -172 192q-20 57 -20 113q0 74 35 146q61 127 203 237q117 103 177 229zM566.5 1465q-26.5 26 -26.5 63q0 38 26.5 64t63.5 26t63.5 -26t26.5 -64q0 -37 -26.5 -63t-63.5 -26t-63.5 26z" />
    <glyph glyph-name="Agrave" unicode="&#xc0;" horiz-adv-x="1291" 
d="M890 703l-244 671l-244 -671h488zM923 613h-554l-223 -613h-96l596 1637l595 -1637h-95zM522 1886l163 -187h-84l-245 187h166z" />
    <glyph glyph-name="Aacute" unicode="&#xc1;" horiz-adv-x="1291" 
d="M890 703l-244 671l-244 -671h488zM923 613h-554l-223 -613h-96l596 1637l595 -1637h-95zM935 1886l-245 -187h-84l163 187h166z" />
    <glyph glyph-name="Acircumflex" unicode="&#xc2;" horiz-adv-x="1291" 
d="M890 703l-244 671l-244 -671h488zM923 613h-554l-223 -613h-96l596 1637l595 -1637h-95zM694 1842l238 -234h-104l-186 143l-176 -143h-105l229 234h104z" />
    <glyph glyph-name="Atilde" unicode="&#xc3;" horiz-adv-x="1291" 
d="M890 703l-244 671l-244 -671h488zM923 613h-554l-223 -613h-96l596 1637l595 -1637h-95zM640 1773q75 -60 124 -60h5q50 3 70 84h69q-21 -129 -99 -152q-21 -6 -42 -6q-57 0 -115 46q-75 59 -124 59h-5q-50 -3 -70 -84h-70q22 129 100 152q21 6 42 6q57 0 115 -45z" />
    <glyph glyph-name="Adieresis" unicode="&#xc4;" horiz-adv-x="1291" 
d="M890 703l-244 671l-244 -671h488zM923 613h-554l-223 -613h-96l596 1637l595 -1637h-95zM559.5 1812q26.5 -26 26.5 -63q0 -38 -26.5 -64t-63.5 -26t-63.5 26t-26.5 64q0 37 26.5 63t63.5 26t63.5 -26zM859.5 1812q26.5 -26 26.5 -63q0 -38 -26.5 -64t-63.5 -26t-63.5 26
t-26.5 64q0 37 26.5 63t63.5 26t63.5 -26z" />
    <glyph glyph-name="Aring" unicode="&#xc5;" horiz-adv-x="1291" 
d="M890 703l-244 671l-244 -671h488zM636 1611h20q17 3 30 16q17 17 17 40q0 24 -17 41t-40 17q-24 0 -41 -17t-17 -41q0 -23 17 -40q14 -14 31 -16zM678 1549l563 -1549h-95l-223 613h-554l-223 -613h-96l564 1549q-31 8 -55 32q-36 36 -36 86q0 51 36 87t87 36
q50 0 86 -36t36 -87q0 -50 -36 -86q-24 -24 -54 -32z" />
    <glyph glyph-name="AE" unicode="&#xc6;" horiz-adv-x="1758" 
d="M1633 845v-90h-710v-665h710v-90h-800v613h-339l-273 -613h-96l696 1600h812v-90h-710v-665h710zM833 703v712l-306 -712h306z" />
    <glyph glyph-name="Ccedilla" unicode="&#xc7;" horiz-adv-x="1595" 
d="M917 -19q-323 10 -552 240q-240 239 -240 579q0 339 239.5 579t579.5 240q317 0 551 -213l-68 -62q-206 183 -483 183q-301 0 -514 -213t-213 -514q0 -302 213 -515t514 -213q277 0 483 183l68 -61q-217 -198 -506 -212l-9 -27q108 0 133 -42q11 -20 11 -41
q0 -25 -14 -53q-28 -53 -74 -69q-39 -13 -82 -13h-16q-52 3 -82 23l41 37q11 -4 34 -6h9q20 0 42 6q28 8 41 31q6 13 6 23q0 9 -4 16q-25 28 -57 32q-12 1 -29 1q-29 0 -74 -4z" />
    <glyph glyph-name="Egrave" unicode="&#xc8;" horiz-adv-x="1075" 
d="M950 1600v-90h-710v-665h710v-90h-710v-665h710v-90h-800v1600h800zM497 1855l163 -187h-84l-245 187h166z" />
    <glyph glyph-name="Eacute" unicode="&#xc9;" horiz-adv-x="1075" 
d="M950 1600v-90h-710v-665h710v-90h-710v-665h710v-90h-800v1600h800zM769 1855l-245 -187h-84l163 187h166z" />
    <glyph glyph-name="Ecircumflex" unicode="&#xca;" horiz-adv-x="1075" 
d="M950 1600v-90h-710v-665h710v-90h-710v-665h710v-90h-800v1600h800zM599 1892l238 -234h-104l-186 143l-176 -143h-105l229 234h104z" />
    <glyph glyph-name="Edieresis" unicode="&#xcb;" horiz-adv-x="1075" 
d="M950 1600v-90h-710v-665h710v-90h-710v-665h710v-90h-800v1600h800zM463.5 1822q26.5 -26 26.5 -63q0 -38 -26.5 -64t-63.5 -26t-63.5 26t-26.5 64q0 37 26.5 63t63.5 26t63.5 -26zM763.5 1822q26.5 -26 26.5 -63q0 -38 -26.5 -64t-63.5 -26t-63.5 26t-26.5 64
q0 37 26.5 63t63.5 26t63.5 -26z" />
    <glyph glyph-name="Igrave" unicode="&#xcc;" 
d="M260 1600v-1600h-90v1600h90zM92 1855l163 -187h-84l-245 187h166z" />
    <glyph glyph-name="Iacute" unicode="&#xcd;" 
d="M260 1600v-1600h-90v1600h90zM504 1855l-245 -187h-84l163 187h166z" />
    <glyph glyph-name="Icircumflex" unicode="&#xce;" 
d="M260 1600v-1600h-90v1600h90zM263 1842l238 -234h-104l-186 143l-176 -143h-105l229 234h104z" />
    <glyph glyph-name="Idieresis" unicode="&#xcf;" 
d="M260 1600v-1600h-90v1600h90zM128.5 1822q26.5 -26 26.5 -63q0 -38 -26.5 -64t-63.5 -26t-63.5 26t-26.5 64q0 37 26.5 63t63.5 26t63.5 -26zM428.5 1822q26.5 -26 26.5 -63q0 -38 -26.5 -64t-63.5 -26t-63.5 26t-26.5 64q0 37 26.5 63t63.5 26t63.5 -26z" />
    <glyph glyph-name="Eth" unicode="&#xd0;" horiz-adv-x="1284" 
d="M210 845v755h90v-2h7q395 0 612 -218q240 -241 240 -580q0 -340 -240 -580q-217 -218 -612 -218h-7v-2h-90v755h-160v90h160zM300 845h370v-90h-370v-662h7q356 0 547 192q213 213 213 515q0 301 -213 515q-191 191 -547 191h-7v-661z" />
    <glyph glyph-name="Ntilde" unicode="&#xd1;" horiz-adv-x="1311" 
d="M150 1600h99l822 -1423v1423h90v-1600h-90l-831 1437v-1437h-90v1600zM650 1773q75 -60 124 -60h5q50 3 70 84h69q-21 -129 -99 -152q-21 -6 -42 -6q-57 0 -115 46q-75 59 -124 59h-5q-50 -3 -70 -84h-70q22 129 100 152q21 6 42 6q57 0 115 -45z" />
    <glyph glyph-name="Ograve" unicode="&#xd2;" horiz-adv-x="1892" 
d="M1526.5 1382.5q240.5 -240.5 240.5 -580.5t-240.5 -580.5t-580.5 -240.5t-580.5 240.5t-240.5 580.5t240.5 580.5t580.5 240.5t580.5 -240.5zM946 1531q-302 0 -515.5 -213.5t-213.5 -515.5t213.5 -516t515.5 -214t515.5 214t213.5 516t-213.5 515.5t-515.5 213.5z
M893 1855l163 -187h-84l-245 187h166z" />
    <glyph glyph-name="Oacute" unicode="&#xd3;" horiz-adv-x="1892" 
d="M1526.5 1382.5q240.5 -240.5 240.5 -580.5t-240.5 -580.5t-580.5 -240.5t-580.5 240.5t-240.5 580.5t240.5 580.5t580.5 240.5t580.5 -240.5zM946 1531q-302 0 -515.5 -213.5t-213.5 -515.5t213.5 -516t515.5 -214t515.5 214t213.5 516t-213.5 515.5t-515.5 213.5z
M1165 1855l-245 -187h-84l163 187h166z" />
    <glyph glyph-name="Ocircumflex" unicode="&#xd4;" horiz-adv-x="1892" 
d="M1526.5 1382.5q240.5 -240.5 240.5 -580.5t-240.5 -580.5t-580.5 -240.5t-580.5 240.5t-240.5 580.5t240.5 580.5t580.5 240.5t580.5 -240.5zM946 1531q-302 0 -515.5 -213.5t-213.5 -515.5t213.5 -516t515.5 -214t515.5 214t213.5 516t-213.5 515.5t-515.5 213.5z
M995 1892l238 -234h-104l-186 143l-176 -143h-105l229 234h104z" />
    <glyph glyph-name="Otilde" unicode="&#xd5;" horiz-adv-x="1892" 
d="M1526.5 1382.5q240.5 -240.5 240.5 -580.5t-240.5 -580.5t-580.5 -240.5t-580.5 240.5t-240.5 580.5t240.5 580.5t580.5 240.5t580.5 -240.5zM946 1531q-302 0 -515.5 -213.5t-213.5 -515.5t213.5 -516t515.5 -214t515.5 214t213.5 516t-213.5 515.5t-515.5 213.5z
M941 1793q75 -60 124 -60h5q50 3 70 84h69q-21 -129 -99 -152q-21 -6 -42 -6q-57 0 -115 46q-75 59 -124 59h-5q-50 -3 -70 -84h-70q22 129 100 152q21 6 42 6q57 0 115 -45z" />
    <glyph glyph-name="Odieresis" unicode="&#xd6;" horiz-adv-x="1892" 
d="M1526.5 1382.5q240.5 -240.5 240.5 -580.5t-240.5 -580.5t-580.5 -240.5t-580.5 240.5t-240.5 580.5t240.5 580.5t580.5 240.5t580.5 -240.5zM946 1531q-302 0 -515.5 -213.5t-213.5 -515.5t213.5 -516t515.5 -214t515.5 214t213.5 516t-213.5 515.5t-515.5 213.5z
M859.5 1822q26.5 -26 26.5 -63q0 -38 -26.5 -64t-63.5 -26t-63.5 26t-26.5 64q0 37 26.5 63t63.5 26t63.5 -26zM1159.5 1822q26.5 -26 26.5 -63q0 -38 -26.5 -64t-63.5 -26t-63.5 26t-26.5 64q0 37 26.5 63t63.5 26t63.5 -26z" />
    <glyph glyph-name="multiply" unicode="&#xd7;" horiz-adv-x="1050" 
d="M525 528l-251 -251l-64 64l251 251l-251 251l64 64l251 -251l251 251l63 -64l-251 -251l251 -251l-63 -64z" />
    <glyph glyph-name="Oslash" unicode="&#xd8;" horiz-adv-x="1892" 
d="M1213 1483q-123 48 -267 48q-302 0 -515.5 -213.5t-213.5 -515.5t214 -516q77 -77 166 -127zM678 121q124 -49 268 -49q302 0 515.5 214t213.5 516t-213 516q-78 77 -167 126zM1334 1528q103 -56 193 -145q240 -241 240 -581t-240.5 -580.5t-580.5 -240.5q-165 0 -306 57
l-86 -184l-82 38l86 184q-103 56 -192 146q-241 240 -241 580t240.5 580.5t580.5 240.5q165 0 306 -57l86 184l82 -38z" />
    <glyph glyph-name="Ugrave" unicode="&#xd9;" horiz-adv-x="1345" 
d="M1104 1600h91v-1150q-25 -183 -153 -311q-153 -153 -369 -153q-217 0 -370 153t-153 369v1092h91v-1092q0 -178 126.5 -304.5t305.5 -126.5t305 126.5t126 304.5v1092zM619 1855l163 -187h-84l-245 187h166z" />
    <glyph glyph-name="Uacute" unicode="&#xda;" horiz-adv-x="1345" 
d="M1104 1600h91v-1150q-25 -183 -153 -311q-153 -153 -369 -153q-217 0 -370 153t-153 369v1092h91v-1092q0 -178 126.5 -304.5t305.5 -126.5t305 126.5t126 304.5v1092zM892 1855l-245 -187h-84l163 187h166z" />
    <glyph glyph-name="Ucircumflex" unicode="&#xdb;" horiz-adv-x="1345" 
d="M1104 1600h91v-1150q-25 -183 -153 -311q-153 -153 -369 -153q-217 0 -370 153t-153 369v1092h91v-1092q0 -178 126.5 -304.5t305.5 -126.5t305 126.5t126 304.5v1092zM721 1842l238 -234h-104l-186 143l-176 -143h-105l229 234h104z" />
    <glyph glyph-name="Udieresis" unicode="&#xdc;" horiz-adv-x="1345" 
d="M1104 1600h91v-1150q-25 -183 -153 -311q-153 -153 -369 -153q-217 0 -370 153t-153 369v1092h91v-1092q0 -178 126.5 -304.5t305.5 -126.5t305 126.5t126 304.5v1092zM586.5 1812q26.5 -26 26.5 -63q0 -38 -26.5 -64t-63.5 -26t-63.5 26t-26.5 64q0 37 26.5 63t63.5 26
t63.5 -26zM886.5 1812q26.5 -26 26.5 -63q0 -38 -26.5 -64t-63.5 -26t-63.5 26t-26.5 64q0 37 26.5 63t63.5 26t63.5 -26z" />
    <glyph glyph-name="Yacute" unicode="&#xdd;" horiz-adv-x="1291" 
d="M600 647l-550 953h103l492 -853l493 853h103l-551 -953v-647h-90v647zM865 1855l-245 -187h-84l163 187h166z" />
    <glyph glyph-name="Thorn" unicode="&#xde;" horiz-adv-x="1124" 
d="M240 1323h330q183 -25 311 -153q153 -153 153 -369q0 -217 -153 -370t-369 -153h-272v-278h-90v1600h90v-277zM240 369h272q178 0 304.5 126.5t126.5 305.5t-126.5 305t-304.5 126h-272v-863z" />
    <glyph glyph-name="agrave" unicode="&#xe0;" horiz-adv-x="1360" 
d="M1210 0h-90v200q-26 -35 -57 -67q-161 -161 -389 -161q-227 0 -388 161t-161 388q0 228 161 389t388 161q228 0 389 -161q31 -32 57 -67v139h90v-982zM1120 432v178q-25 132 -125 232q-133 133 -321 133t-321 -133t-133 -321t133 -320.5t321 -132.5t321 133
q100 100 125 231zM614 1287l163 -187h-84l-245 187h166z" />
    <glyph glyph-name="aacute" unicode="&#xe1;" horiz-adv-x="1360" 
d="M1210 0h-90v200q-26 -35 -57 -67q-161 -161 -389 -161q-227 0 -388 161t-161 388q0 228 161 389t388 161q228 0 389 -161q31 -32 57 -67v139h90v-982zM1120 432v178q-25 132 -125 232q-133 133 -321 133t-321 -133t-133 -321t133 -320.5t321 -132.5t321 133
q100 100 125 231zM887 1287l-245 -187h-84l163 187h166z" />
    <glyph glyph-name="acircumflex" unicode="&#xe2;" horiz-adv-x="1360" 
d="M1210 0h-90v200q-26 -35 -57 -67q-161 -161 -389 -161q-227 0 -388 161t-161 388q0 228 161 389t388 161q228 0 389 -161q31 -32 57 -67v139h90v-982zM1120 432v178q-25 132 -125 232q-133 133 -321 133t-321 -133t-133 -321t133 -320.5t321 -132.5t321 133
q100 100 125 231zM716 1324l238 -234h-104l-186 143l-176 -143h-105l229 234h104z" />
    <glyph glyph-name="atilde" unicode="&#xe3;" horiz-adv-x="1360" 
d="M1210 0h-90v200q-26 -35 -57 -67q-161 -161 -389 -161q-227 0 -388 161t-161 388q0 228 161 389t388 161q228 0 389 -161q31 -32 57 -67v139h90v-982zM1120 432v178q-25 132 -125 232q-133 133 -321 133t-321 -133t-133 -321t133 -320.5t321 -132.5t321 133
q100 100 125 231zM662 1255q75 -60 124 -60h5q50 3 70 84h69q-21 -129 -99 -152q-21 -6 -42 -6q-57 0 -115 46q-75 59 -124 59h-5q-50 -3 -70 -84h-70q22 129 100 152q21 6 42 6q57 0 115 -45z" />
    <glyph glyph-name="adieresis" unicode="&#xe4;" horiz-adv-x="1360" 
d="M1210 0h-90v200q-26 -35 -57 -67q-161 -161 -389 -161q-227 0 -388 161t-161 388q0 228 161 389t388 161q228 0 389 -161q31 -32 57 -67v139h90v-982zM1120 432v178q-25 132 -125 232q-133 133 -321 133t-321 -133t-133 -321t133 -320.5t321 -132.5t321 133
q100 100 125 231zM581.5 1304q26.5 -26 26.5 -63q0 -38 -26.5 -64t-63.5 -26t-63.5 26t-26.5 64q0 37 26.5 63t63.5 26t63.5 -26zM881.5 1304q26.5 -26 26.5 -63q0 -38 -26.5 -64t-63.5 -26t-63.5 26t-26.5 64q0 37 26.5 63t63.5 26t63.5 -26z" />
    <glyph glyph-name="aring" unicode="&#xe5;" horiz-adv-x="1360" 
d="M1120 432v178q-25 132 -125 232q-133 133 -321 133t-321 -133t-133 -321t133 -320.5t321 -132.5t321 133q100 100 125 231zM668 1237q-24 0 -41 -17t-17 -41q0 -23 17 -40t41 -17q23 0 40 17t17 40q0 24 -17 41t-40 17zM721 1069q198 -15 342 -159q31 -32 57 -67v139h90
v-982h-90v200q-26 -35 -57 -67q-161 -161 -389 -161q-227 0 -388 161t-161 388q0 228 161 389q140 140 330 158q-19 9 -35 25q-36 36 -36 86q0 51 36 87t87 36q50 0 86 -36t36 -87q0 -50 -36 -86q-15 -15 -33 -24z" />
    <glyph glyph-name="ae" unicode="&#xe6;" horiz-adv-x="2171" 
d="M1038 739q-30 55 -78 103q-133 133 -321 133t-321 -133t-133 -321t133 -320.5t321 -132.5t321 133q48 48 78 102q34 60 47 129v178q-13 69 -47 129zM1973 663q-32 103 -108 179q-133 133 -321 133t-321 -133q-27 -27 -48 -55v-124h798zM1175 256q21 -29 48 -55
q133 -133 321 -133t321 133q23 23 43 48l96 -34q-17 -28 -71 -82q-161 -161 -389 -161q-214 0 -369 143v-115h-90v200q-26 -35 -57 -67q-161 -161 -389 -161q-227 0 -388 161t-161 388q0 228 161 389t388 161q228 0 389 -161q31 -32 57 -67v139h90v-54q155 143 369 143
q228 0 389 -161q142 -143 148 -338l-906 1v-317z" />
    <glyph glyph-name="ccedilla" unicode="&#xe7;" horiz-adv-x="1177" 
d="M608 -27q-207 10 -357 160q-161 161 -161 389q0 227 161 388t388 161q228 0 389 -161q33 -33 59 -68l-95 -35q-15 18 -32 36q-133 132 -321 132q-187 0 -320 -132.5t-133 -320.5t133 -321t320 -133q188 0 321 133q17 17 32 35l95 -34q-26 -36 -59 -69
q-145 -145 -344 -159l-6 -16q109 0 133 -42q12 -20 12 -42q0 -25 -15 -52q-28 -53 -74 -69q-39 -13 -81 -13h-16q-52 3 -83 23l42 37q10 -4 34 -6h9q20 0 42 6q28 8 40 31q7 13 7 24q0 8 -4 15q-26 28 -58 32q-12 1 -28 1q-29 0 -74 -4z" />
    <glyph glyph-name="egrave" unicode="&#xe8;" horiz-adv-x="1266" 
d="M337 184q127 -116 302 -116q188 0 321 133q17 17 32 35l95 -34q-26 -36 -59 -69q-161 -161 -389 -161q-227 0 -388 161t-161 389q0 227 161 388t388 161q195 0 341 -117q24 -20 48 -44q9 -9 17 -18l-68 -68zM911 885q-117 90 -272 90q-187 0 -320 -132.5t-133 -320.5
q0 -155 90 -272zM580 1287l163 -187h-84l-245 187h166z" />
    <glyph glyph-name="eacute" unicode="&#xe9;" horiz-adv-x="1266" 
d="M337 184q127 -116 302 -116q188 0 321 133q17 17 32 35l95 -34q-26 -36 -59 -69q-161 -161 -389 -161q-227 0 -388 161t-161 389q0 227 161 388t388 161q195 0 341 -117q24 -20 48 -44q9 -9 17 -18l-68 -68zM911 885q-117 90 -272 90q-187 0 -320 -132.5t-133 -320.5
q0 -155 90 -272zM852 1287l-245 -187h-84l163 187h166z" />
    <glyph glyph-name="ecircumflex" unicode="&#xea;" horiz-adv-x="1266" 
d="M337 184q127 -116 302 -116q188 0 321 133q17 17 32 35l95 -34q-26 -36 -59 -69q-161 -161 -389 -161q-227 0 -388 161t-161 389q0 227 161 388t388 161q195 0 341 -117q24 -20 48 -44q9 -9 17 -18l-68 -68zM911 885q-117 90 -272 90q-187 0 -320 -132.5t-133 -320.5
q0 -155 90 -272zM682 1324l238 -234h-104l-186 143l-176 -143h-105l229 234h104z" />
    <glyph glyph-name="edieresis" unicode="&#xeb;" horiz-adv-x="1266" 
d="M337 184q127 -116 302 -116q188 0 321 133q17 17 32 35l95 -34q-26 -36 -59 -69q-161 -161 -389 -161q-227 0 -388 161t-161 389q0 227 161 388t388 161q195 0 341 -117q24 -20 48 -44q9 -9 17 -18l-68 -68zM911 885q-117 90 -272 90q-187 0 -320 -132.5t-133 -320.5
q0 -155 90 -272zM546.5 1304q26.5 -26 26.5 -63q0 -38 -26.5 -64t-63.5 -26t-63.5 26t-26.5 64q0 37 26.5 63t63.5 26t63.5 -26zM846.5 1304q26.5 -26 26.5 -63q0 -38 -26.5 -64t-63.5 -26t-63.5 26t-26.5 64q0 37 26.5 63t63.5 26t63.5 -26z" />
    <glyph glyph-name="igrave" unicode="&#xec;" 
d="M260 982v-982h-90v982h90zM92 1287l163 -187h-84l-245 187h166z" />
    <glyph glyph-name="iacute" unicode="&#xed;" 
d="M260 982v-982h-90v982h90zM504 1287l-245 -187h-84l163 187h166z" />
    <glyph glyph-name="icircumflex" unicode="&#xee;" 
d="M260 982v-982h-90v982h90zM263 1324l238 -234h-104l-186 143l-176 -143h-105l229 234h104z" />
    <glyph glyph-name="idieresis" unicode="&#xef;" 
d="M260 982v-982h-90v982h90zM128.5 1304q26.5 -26 26.5 -63q0 -38 -26.5 -64t-63.5 -26t-63.5 26t-26.5 64q0 37 26.5 63t63.5 26t63.5 -26zM428.5 1304q26.5 -26 26.5 -63q0 -38 -26.5 -64t-63.5 -26t-63.5 26t-26.5 64q0 37 26.5 63t63.5 26t63.5 -26z" />
    <glyph glyph-name="ntilde" unicode="&#xf1;" horiz-adv-x="1071" 
d="M240 763v-763h-90v982h90v-63q123 122 286 122q174 0 283 -109t112 -275v-657h-90v649q0 125 -90.5 213.5t-214.5 88.5t-214 -87q-49 -49 -72 -101zM530 1255q75 -60 124 -60h5q50 3 70 84h69q-21 -129 -99 -152q-21 -6 -42 -6q-57 0 -115 46q-75 59 -124 59h-5
q-50 -3 -70 -84h-70q22 129 100 152q21 6 42 6q57 0 115 -45z" />
    <glyph glyph-name="ograve" unicode="&#xf2;" horiz-adv-x="1278" 
d="M639 1071q228 0 388.5 -161t160.5 -389q0 -227 -160.5 -388t-388.5 -161q-227 0 -388 161t-161 388q0 228 161 389t388 161zM318 842q-133 -133 -133 -321t133 -320.5t321 -132.5t321 132.5t133 320.5t-133 321t-321 133t-321 -133zM586 1287l163 -187h-84l-245 187h166z
" />
    <glyph glyph-name="oacute" unicode="&#xf3;" horiz-adv-x="1278" 
d="M639 1071q228 0 388.5 -161t160.5 -389q0 -227 -160.5 -388t-388.5 -161q-227 0 -388 161t-161 388q0 228 161 389t388 161zM318 842q-133 -133 -133 -321t133 -320.5t321 -132.5t321 132.5t133 320.5t-133 321t-321 133t-321 -133zM858 1287l-245 -187h-84l163 187h166z
" />
    <glyph glyph-name="ocircumflex" unicode="&#xf4;" horiz-adv-x="1278" 
d="M639 1071q228 0 388.5 -161t160.5 -389q0 -227 -160.5 -388t-388.5 -161q-227 0 -388 161t-161 388q0 228 161 389t388 161zM318 842q-133 -133 -133 -321t133 -320.5t321 -132.5t321 132.5t133 320.5t-133 321t-321 133t-321 -133zM688 1324l238 -234h-104l-186 143
l-176 -143h-105l229 234h104z" />
    <glyph glyph-name="otilde" unicode="&#xf5;" horiz-adv-x="1278" 
d="M639 1071q228 0 388.5 -161t160.5 -389q0 -227 -160.5 -388t-388.5 -161q-227 0 -388 161t-161 388q0 228 161 389t388 161zM318 842q-133 -133 -133 -321t133 -320.5t321 -132.5t321 132.5t133 320.5t-133 321t-321 133t-321 -133zM634 1255q75 -60 124 -60h5
q50 3 70 84h69q-21 -129 -99 -152q-21 -6 -42 -6q-57 0 -115 46q-75 59 -124 59h-5q-50 -3 -70 -84h-70q22 129 100 152q21 6 42 6q57 0 115 -45z" />
    <glyph glyph-name="odieresis" unicode="&#xf6;" horiz-adv-x="1278" 
d="M639 1071q228 0 388.5 -161t160.5 -389q0 -227 -160.5 -388t-388.5 -161q-227 0 -388 161t-161 388q0 228 161 389t388 161zM318 842q-133 -133 -133 -321t133 -320.5t321 -132.5t321 132.5t133 320.5t-133 321t-321 133t-321 -133zM552.5 1304q26.5 -26 26.5 -63
q0 -38 -26.5 -64t-63.5 -26t-63.5 26t-26.5 64q0 37 26.5 63t63.5 26t63.5 -26zM852.5 1304q26.5 -26 26.5 -63q0 -38 -26.5 -64t-63.5 -26t-63.5 26t-26.5 64q0 37 26.5 63t63.5 26t63.5 -26z" />
    <glyph glyph-name="divide" unicode="&#xf7;" horiz-adv-x="1050" 
d="M125 659h800v-90h-800v90zM588.5 877q26.5 -26 26.5 -63q0 -38 -26.5 -64t-63.5 -26t-63.5 26t-26.5 64q0 37 26.5 63t63.5 26t63.5 -26zM588.5 477q26.5 -26 26.5 -63q0 -38 -26.5 -64t-63.5 -26t-63.5 26t-26.5 64q0 37 26.5 63t63.5 26t63.5 -26z" />
    <glyph glyph-name="oslash" unicode="&#xf8;" horiz-adv-x="1278" 
d="M827 937q-86 39 -188 39q-188 0 -321 -133t-133 -321t133 -320q27 -28 57 -49zM904 891l-453 -783q86 -39 188 -39q188 0 321 132.5t133 320.5t-133 321q-27 27 -56 48zM327 70q-40 28 -76 64q-161 161 -161 388q0 228 161 389t388 161q129 0 237 -52l122 212l79 -41
l-125 -216q40 -28 76 -64q160 -161 160 -389q0 -227 -160.5 -388t-388.5 -161q-129 0 -236 52l-123 -213l-79 38z" />
    <glyph glyph-name="ugrave" unicode="&#xf9;" horiz-adv-x="1099" 
d="M555 -14q-184 0 -293 109t-112 275v614h90v-606q0 -125 91 -213q90 -89 223 -89q124 0 214.5 88.5t90.5 213.5v606h90v-614q-3 -166 -112 -275t-282 -109zM496 1287l163 -187h-84l-245 187h166z" />
    <glyph glyph-name="uacute" unicode="&#xfa;" horiz-adv-x="1099" 
d="M555 -14q-184 0 -293 109t-112 275v614h90v-606q0 -125 91 -213q90 -89 223 -89q124 0 214.5 88.5t90.5 213.5v606h90v-614q-3 -166 -112 -275t-282 -109zM769 1287l-245 -187h-84l163 187h166z" />
    <glyph glyph-name="ucircumflex" unicode="&#xfb;" horiz-adv-x="1099" 
d="M555 -14q-184 0 -293 109t-112 275v614h90v-606q0 -125 91 -213q90 -89 223 -89q124 0 214.5 88.5t90.5 213.5v606h90v-614q-3 -166 -112 -275t-282 -109zM598 1324l238 -234h-104l-186 143l-176 -143h-105l229 234h104z" />
    <glyph glyph-name="udieresis" unicode="&#xfc;" horiz-adv-x="1099" 
d="M555 -14q-184 0 -293 109t-112 275v614h90v-606q0 -125 91 -213q90 -89 223 -89q124 0 214.5 88.5t90.5 213.5v606h90v-614q-3 -166 -112 -275t-282 -109zM463.5 1304q26.5 -26 26.5 -63q0 -38 -26.5 -64t-63.5 -26t-63.5 26t-26.5 64q0 37 26.5 63t63.5 26t63.5 -26z
M763.5 1304q26.5 -26 26.5 -63q0 -38 -26.5 -64t-63.5 -26t-63.5 26t-26.5 64q0 37 26.5 63t63.5 26t63.5 -26z" />
    <glyph glyph-name="yacute" unicode="&#xfd;" horiz-adv-x="1005" 
d="M503 88l-222 -463h-88l265 556l-383 801h102l326 -704l326 704h101l-427 -895v1zM722 1287l-245 -187h-84l163 187h166z" />
    <glyph glyph-name="thorn" unicode="&#xfe;" horiz-adv-x="1334" 
d="M219 633v-224q29 -118 120 -209q133 -133 321 -133t321 133t133 321t-133 321t-321 133t-321 -133q-91 -91 -120 -209zM219 849q24 32 53 61q161 160 388 160q228 0 388.5 -160.5t160.5 -388.5q0 -227 -160.5 -388t-388.5 -161q-227 0 -388 161q-29 29 -53 61v-552h-90
v1758h90v-551z" />
    <glyph glyph-name="ydieresis" unicode="&#xff;" horiz-adv-x="1005" 
d="M503 88l-222 -463h-88l265 556l-383 801h102l326 -704l326 704h101l-427 -895v1zM416.5 1304q26.5 -26 26.5 -63q0 -38 -26.5 -64t-63.5 -26t-63.5 26t-26.5 64q0 37 26.5 63t63.5 26t63.5 -26zM716.5 1304q26.5 -26 26.5 -63q0 -38 -26.5 -64t-63.5 -26t-63.5 26
t-26.5 64q0 37 26.5 63t63.5 26t63.5 -26z" />
    <glyph glyph-name="dotlessi" unicode="&#x131;" 
d="M260 982v-982h-90v982h90z" />
    <glyph glyph-name="circumflex" unicode="&#x2c6;" horiz-adv-x="811" 
d="M454 1224l238 -234h-104l-186 143l-176 -143h-105l229 234h104z" />
    <glyph glyph-name="caron" unicode="&#x2c7;" horiz-adv-x="811" 
d="M350 990l-229 234h105l176 -143l186 143h104l-238 -234h-104z" />
    <glyph glyph-name="uni02C9" unicode="&#x2c9;" horiz-adv-x="890" 
d="M150 1127h590v-70h-590v70z" />
    <glyph glyph-name="breve" unicode="&#x2d8;" horiz-adv-x="880" 
d="M279 1238q8 -53 46 -91q48 -48 116 -48q67 0 115 48q39 38 46 91h73q-8 -83 -68 -143q-68 -69 -166 -69q-99 0 -167 69q-65 66 -69 143h74z" />
    <glyph glyph-name="dotaccent" unicode="&#x2d9;" horiz-adv-x="403" 
d="M255.5 1181q22.5 -22 22.5 -54t-22.5 -54t-53.5 -22q-32 0 -54.5 22t-22.5 54t22.5 54t54.5 22q31 0 53.5 -22z" />
    <glyph glyph-name="ring" unicode="&#x2da;" horiz-adv-x="762" 
d="M469 1226q36 -36 36 -87q0 -50 -36 -86t-87 -36t-87 36t-36 86q0 51 36 87t87 36t87 -36zM382 1197q-24 0 -41 -17t-17 -41q0 -23 17 -40t41 -17q23 0 40 17t17 40q0 24 -17 41t-40 17z" />
    <glyph glyph-name="ogonek" unicode="&#x2db;" horiz-adv-x="761" 
d="M429 8q-70 -27 -99 -57q-30 -29 -30 -70v-2q1 -43 30 -73q30 -29 68 -29q37 0 79 32l24 -53l-4 -3q-39 -39 -99 -39h-3q-63 0 -110 47q-48 48 -48 116l1 1q0 69 48 117q44 44 102 44h10z" />
    <glyph glyph-name="tilde" unicode="&#x2dc;" horiz-adv-x="825" 
d="M407 1155q75 -60 124 -60h5q50 3 70 84h69q-21 -129 -99 -152q-21 -6 -42 -6q-57 0 -115 46q-75 59 -124 59h-5q-50 -3 -70 -84h-70q22 129 100 152q21 6 42 6q57 0 115 -45z" />
    <glyph glyph-name="hungarumlaut" unicode="&#x2dd;" horiz-adv-x="858" 
d="M479 1198l-245 -187h-84l163 187h166zM708 1198l-245 -187h-84l163 187h166z" />
    <glyph glyph-name="endash" unicode="&#x2013;" horiz-adv-x="871" 
d="M50 637h771v-90h-771v90z" />
    <glyph glyph-name="emdash" unicode="&#x2014;" horiz-adv-x="1507" 
d="M50 637h1407v-90h-1407v90z" />
    <glyph glyph-name="quoteleft" unicode="&#x2018;" horiz-adv-x="280" 
d="M163 1461q23 -5 41 -23q26 -26 26 -64q0 -37 -26.5 -63t-63.5 -26t-63.5 26t-26.5 63q0 21 7 39l98 198h65z" />
    <glyph glyph-name="quoteright" unicode="&#x2019;" horiz-adv-x="280" 
d="M117 1435q-23 5 -40 23q-27 26 -27 64q0 37 26.5 63t63.5 26t63.5 -26t26.5 -63q0 -21 -7 -39l-98 -198h-65z" />
    <glyph glyph-name="quotesinglbase" unicode="&#x201a;" horiz-adv-x="280" 
d="M117 -13q-23 5 -40 23q-27 26 -27 64q0 37 26.5 63t63.5 26t63.5 -26t26.5 -63q0 -21 -7 -39l-98 -198h-65z" />
    <glyph glyph-name="quotedblleft" unicode="&#x201c;" horiz-adv-x="532" 
d="M163 1461q23 -5 41 -23q26 -26 26 -64q0 -37 -26.5 -63t-63.5 -26t-63.5 26t-26.5 63q0 21 7 39l98 198h65zM415 1461q23 -5 41 -23q26 -26 26 -64q0 -37 -26.5 -63t-63.5 -26t-63.5 26t-26.5 63q0 21 7 39l98 198h65z" />
    <glyph glyph-name="quotedblright" unicode="&#x201d;" horiz-adv-x="532" 
d="M117 1435q-23 5 -40 23q-27 26 -27 64q0 37 26.5 63t63.5 26t63.5 -26t26.5 -63q0 -21 -7 -39l-98 -198h-65zM369 1435q-23 5 -40 23q-27 26 -27 64q0 37 26.5 63t63.5 26t63.5 -26t26.5 -63q0 -21 -7 -39l-98 -198h-65z" />
    <glyph glyph-name="quotedblbase" unicode="&#x201e;" horiz-adv-x="532" 
d="M117 -13q-23 5 -40 23q-27 26 -27 64q0 37 26.5 63t63.5 26t63.5 -26t26.5 -63q0 -21 -7 -39l-98 -198h-65zM369 -13q-23 5 -40 23q-27 26 -27 64q0 37 26.5 63t63.5 26t63.5 -26t26.5 -63q0 -21 -7 -39l-98 -198h-65z" />
    <glyph glyph-name="dagger" unicode="&#x2020;" horiz-adv-x="758" 
d="M350 1596v218h58v-218h250v-58h-250v-1365h-58v1365h-250v58h250z" />
    <glyph glyph-name="daggerdbl" unicode="&#x2021;" horiz-adv-x="758" 
d="M350 1538h-250v58h250v218h58v-218h250v-58h-250v-485h250v-58h-250v-822h-58v822h-250v58h250v485z" />
    <glyph glyph-name="bullet" unicode="&#x2022;" horiz-adv-x="2620" 
d="M1041 1359h546l308 -392l-64 -302q126 42 126 134q-20 24 -20 48q0 78 140 78q104 0 210 -140q68 -56 258 -112q0 -28 -20 -28q0 -14 6 -22q-6 -34 -56 -43q-18 -3 -42 -3q-44 0 -108 10q24 -20 136 -20q21 4 37 4t27 -4q0 -54 -204 -84l-126 8q114 -56 190 -56h42v-8
q-52 -70 -190 -70q-70 0 -160 36q0 -44 160 -98q0 -28 -76 -36q-44 0 -190 64q0 -34 70 -92q-5 -3 -17 -3q-36 0 -137 31l22 -62l-28 -8q-38 0 -134 106l-62 -294h-742l-84 294q-74 -94 -120 -106l-28 8l14 62q-86 -42 -132 -42l-14 22q63 38 63 76q0 4 -1 8
q-128 -64 -188 -64q-70 8 -70 36q154 52 154 95v3q-72 -36 -154 -36h-28q-110 0 -162 70v8h42q76 0 133 17t57 39l-140 -8q-190 34 -190 84l14 8l50 -8q47 -2 81 -2q67 0 81 8l-156 11t-76 33l6 20l-20 8v28q224 62 294 146q74 106 174 106q140 0 140 -78q0 -24 -20 -48
q22 -134 112 -134l-70 302zM1288 778q0 39 50 76q17 -37 43 -178q5 -30 5 -62q0 -116 -73 -250q115 101 178 199q51 80 51 155q0 17 -2 34q-14 91 -28 138q-14 48 -25 107l-163 -59q-16 -9 -36 -17v3q-6 70 -31 73q-53 -37 -176 -96q47 -14 47 -44v-252q0 -6 -11 -13
t-39 -21q48 -72 99 -72q23 0 47 15q75 46 120 60q-45 11 -50.5 23.5t-5.5 18.5v162z" />
    <glyph glyph-name="ellipsis" unicode="&#x2026;" horiz-adv-x="2148" 
d="M253.5 139q26.5 -26 26.5 -63q0 -38 -26.5 -64t-63.5 -26t-63.5 26t-26.5 64q0 37 26.5 63t63.5 26t63.5 -26zM936.5 139q26.5 -26 26.5 -63q0 -38 -26.5 -64t-63.5 -26t-63.5 26t-26.5 64q0 37 26.5 63t63.5 26t63.5 -26zM1619.5 139q26.5 -26 26.5 -63q0 -38 -26.5 -64
t-63.5 -26t-63.5 26t-26.5 64q0 37 26.5 63t63.5 26t63.5 -26z" />
    <glyph glyph-name="guilsinglleft" unicode="&#x2039;" horiz-adv-x="629" 
d="M100 462l429 460v-104l-331 -356l331 -356v-105z" />
    <glyph glyph-name="guilsinglright" unicode="&#x203a;" horiz-adv-x="629" 
d="M100 1v105l331 356l-331 356v104l429 -460z" />
    <glyph glyph-name="fraction" unicode="&#x2044;" horiz-adv-x="1091" 
d="M1041 1430l-917 -1311l-74 51l918 1311z" />
    <glyph glyph-name="fraction" unicode="&#x2215;" horiz-adv-x="1091" 
d="M1041 1430l-917 -1311l-74 51l918 1311z" />
    <glyph glyph-name="franc" unicode="&#x20a3;" horiz-adv-x="1012" 
d="M212 468v1132h700v-90h-610v-665h610v-90h-610v-287h288v-90h-288v-378h-90v378h-162v90h162z" />
    <glyph glyph-name="lira" unicode="&#x20a4;" horiz-adv-x="1130" 
d="M299 755q-17 40 -37 79q-111 180 -125 343q-2 19 -2 38q0 139 92 249q103 123 266 138q19 1 38 1q139 0 250 -92q124 -105 139 -267q3 -23 3 -44q0 -63 -22 -114l-86 29q15 43 15 95q0 14 -1 28q-12 123 -107 203q-84 70 -190 70q-14 0 -28 -1q-124 -11 -204 -106
q-70 -84 -70 -189q0 -15 1 -30q10 -113 78 -256q53 -85 87 -174h232v-90h-202q16 -59 23 -120h179v-90h-173q-6 -198 -170 -392q125 45 246 45q72 0 143 -16q99 -23 188 -23q80 0 151 18l17 -89q-81 -20 -168 -20q-89 0 -183 22q-98 21 -173 21q-68 0 -117 -17
q-104 -38 -202 -87l-87 103q124 110 156 149q106 126 108 286h-236v90h229q-8 60 -26 120h-203v90h171z" />
    <glyph glyph-name="Euro" unicode="&#x20ac;" horiz-adv-x="1450" 
d="M268 885v166q0 227 161 388t388 161q228 0 388 -161l-67 -67q-133 132 -321 132t-321 -132.5t-133 -320.5v-166h657l-18 -90h-639v-120h615l-18 -90h-597v-64q0 -188 133 -320.5t321 -132.5t321 133q82 82 114 185h98q-34 -142 -145 -253q-160 -161 -388 -161
q-227 0 -388 161t-161 388v64h-168l18 90h150v120h-126l18 90h108z" />
    <glyph glyph-name="afii61352" unicode="&#x2116;" horiz-adv-x="2054" 
d="M1894 1543h35v-632h-710v35h675v597zM1502 1131q101 5 155 58q58 57 58 140q0 82 -58 140q-54 53 -155 58q-101 -5 -155 -58q-58 -58 -58 -140q0 -83 58 -140q54 -53 155 -58zM1487 1054q-115 0 -195 80.5t-80 194.5t80 194.5t195 80.5h29q115 0 195 -80.5t80 -194.5
t-80 -194.5t-195 -80.5h-29zM125 1600h99l822 -1423v1423h90v-1600h-90l-831 1437v-1437h-90v1600z" />
    <glyph glyph-name="trademark" unicode="&#x2122;" horiz-adv-x="1251" 
d="M497 1556h-158v-604h-57v604h-182v52h453l267 -409l266 409h65l-9 -13v-643h-56v556l-266 -410l-267 410v-556h-56v604z" />
    <glyph glyph-name="minus" unicode="&#x2212;" horiz-adv-x="1050" 
d="M125 637h800v-90h-800v90z" />
    <glyph glyph-name="infinity" unicode="&#x221e;" horiz-adv-x="1217" 
d="M992 804q-19 25 -32 39q-133 132 -321 132q-187 0 -320 -132q-107 -107 -128 -250v-3zM1127 747l-940 -252q9 -171 132 -294q133 -133 320 -133q188 0 321 133q17 17 32 35l95 -34q-26 -36 -59 -69q-161 -161 -389 -161q-227 0 -388 161q-143 143 -159 340q-2 24 -2 49
q0 22 2 44q14 199 159 344q161 161 388 161q228 0 389 -161q51 -51 99 -163z" />
    <glyph glyph-name="approxequal" unicode="&#x2248;" horiz-adv-x="1277" 
d="M638 996q188 -109 273 -109q15 0 27 3q77 23 108 100q15 38 15 77l91 -14q-4 -48 -23 -97q-46 -111 -156 -148q-25 -8 -56 -8q-105 0 -278 99q-190 109 -274 109q-14 0 -26 -3q-77 -23 -108 -100q-15 -39 -16 -77l-90 14q2 48 22 97q46 111 157 148q25 8 55 8
q106 0 279 -99zM638 701q188 -109 273 -109q15 0 27 3q77 23 108 100q15 38 15 77l91 -14q-4 -48 -23 -97q-46 -111 -156 -148q-25 -8 -56 -8q-105 0 -278 99q-190 109 -274 109q-14 0 -26 -3q-77 -23 -108 -100q-15 -39 -16 -77l-90 14q2 48 22 97q46 111 157 148
q25 8 55 8q106 0 279 -99z" />
    <glyph glyph-name="lessequal" unicode="&#x2264;" horiz-adv-x="1349" 
d="M1249 145l-1149 418l1149 418v-96l-886 -322l886 -322v-96zM149 90h1100v-90h-1100v90z" />
    <glyph glyph-name="greaterequal" unicode="&#x2265;" horiz-adv-x="1349" 
d="M100 241l886 322l-886 322v96l1149 -418l-1149 -418v96zM100 90h1100v-90h-1100v90z" />
    <glyph glyph-name="ordfeminine" unicode="&#xaa;" horiz-adv-x="878" 
d="M131 944h575v-31h-606v628h31v-597zM778 1071h-55v85q-2 -3 -17 -19q-80 -79 -192 -79q-113 0 -192 79.5t-79 191.5t79 191.5t192 79.5q112 0 192 -79q15 -16 17 -19v55h55v-486zM723 1286v85q-11 62 -59 109q-62 62 -150 62q-89 0 -151.5 -62.5t-62.5 -150.5
q0 -89 62.5 -151t151.5 -62q88 0 150 62q48 47 59 108z" />
    <glyph glyph-name="ordmasculine" unicode="&#xba;" horiz-adv-x="914" 
d="M529 1116q108 5 166 62q62 62 62 151q0 88 -62 151q-58 57 -166 62q-109 -5 -166 -62q-63 -63 -63 -151q0 -89 63 -151q57 -57 166 -62zM514 1058q-113 0 -192 79.5t-79 191.5t79 191.5t192 79.5h29q113 0 192 -79.5t79 -191.5t-79 -191.5t-192 -79.5h-29zM131 944h575
v-31h-606v628h31v-597z" />
    <glyph glyph-name="eth" unicode="&#xf0;" horiz-adv-x="1278" 
d="M185 521q0 -188 133 -320.5t321 -132.5t321 132.5t133 320.5t-133 321t-321 133t-321 -133t-133 -321zM957 971q37 -27 71 -61q160 -161 160 -389q0 -227 -160.5 -388t-388.5 -161q-227 0 -388 161t-161 388q0 228 161 389t388 161q33 0 65 -3l-54 60h-168v90h87
l-104 115h128l115 -115h164v-90h-73z" />
    <glyph glyph-name="Amacron" unicode="&#x100;" horiz-adv-x="1291" 
d="M890 703l-244 671l-244 -671h488zM923 613h-554l-223 -613h-96l596 1637l595 -1637h-95zM351 1745h590v-70h-590v70z" />
    <glyph glyph-name="amacron" unicode="&#x101;" horiz-adv-x="1360" 
d="M1210 0h-90v200q-26 -35 -57 -67q-161 -161 -389 -161q-227 0 -388 161t-161 388q0 228 161 389t388 161q228 0 389 -161q31 -32 57 -67v139h90v-982zM1120 432v178q-25 132 -125 232q-133 133 -321 133t-321 -133t-133 -321t133 -320.5t321 -132.5t321 133
q100 100 125 231zM373 1227h590v-70h-590v70z" />
    <glyph glyph-name="Abreve" unicode="&#x102;" horiz-adv-x="1291" 
d="M890 703l-244 671l-244 -671h488zM923 613h-554l-223 -613h-96l596 1637l595 -1637h-95zM484 1856q8 -53 46 -91q48 -48 116 -48q67 0 115 48q39 38 46 91h73q-8 -83 -68 -143q-68 -69 -166 -69q-99 0 -167 69q-65 66 -69 143h74z" />
    <glyph glyph-name="abreve" unicode="&#x103;" horiz-adv-x="1360" 
d="M1210 0h-90v200q-26 -35 -57 -67q-161 -161 -389 -161q-227 0 -388 161t-161 388q0 228 161 389t388 161q228 0 389 -161q31 -32 57 -67v139h90v-982zM1120 432v178q-25 132 -125 232q-133 133 -321 133t-321 -133t-133 -321t133 -320.5t321 -132.5t321 133
q100 100 125 231zM506 1338q8 -53 46 -91q48 -48 116 -48q67 0 115 48q39 38 46 91h73q-8 -83 -68 -143q-68 -69 -166 -69q-99 0 -167 69q-65 66 -69 143h74z" />
    <glyph glyph-name="Cacute" unicode="&#x106;" horiz-adv-x="1595" 
d="M1427 255l68 -61q-234 -213 -551 -213q-340 0 -579.5 239.5t-239.5 579.5q0 339 239.5 579t579.5 240q317 0 551 -213l-68 -62q-206 183 -483 183q-301 0 -514 -213t-213 -514q0 -302 213 -515t514 -213q277 0 483 183zM1179 1855l-245 -187h-84l163 187h166z" />
    <glyph glyph-name="cacute" unicode="&#x107;" horiz-adv-x="1177" 
d="M992 236l95 -34q-26 -36 -59 -69q-161 -161 -389 -161q-227 0 -388 161t-161 389q0 227 161 388t388 161q228 0 389 -161q33 -33 59 -68l-95 -35q-15 18 -32 36q-133 132 -321 132q-187 0 -320 -132.5t-133 -320.5t133 -321t320 -133q188 0 321 133q17 17 32 35z
M878 1287l-245 -187h-84l163 187h166z" />
    <glyph glyph-name="Ccircumflex" unicode="&#x108;" horiz-adv-x="1595" 
d="M1427 255l68 -61q-234 -213 -551 -213q-340 0 -579.5 239.5t-239.5 579.5q0 339 239.5 579t579.5 240q317 0 551 -213l-68 -62q-206 183 -483 183q-301 0 -514 -213t-213 -514q0 -302 213 -515t514 -213q277 0 483 183zM999 1892l238 -234h-104l-186 143l-176 -143h-105
l229 234h104z" />
    <glyph glyph-name="ccircumflex" unicode="&#x109;" horiz-adv-x="1177" 
d="M992 236l95 -34q-26 -36 -59 -69q-161 -161 -389 -161q-227 0 -388 161t-161 389q0 227 161 388t388 161q228 0 389 -161q33 -33 59 -68l-95 -35q-15 18 -32 36q-133 132 -321 132q-187 0 -320 -132.5t-133 -320.5t133 -321t320 -133q188 0 321 133q17 17 32 35z
M687 1324l238 -234h-104l-186 143l-176 -143h-105l229 234h104z" />
    <glyph glyph-name="Cdotaccent" unicode="&#x10a;" horiz-adv-x="1595" 
d="M1427 255l68 -61q-234 -213 -551 -213q-340 0 -579.5 239.5t-239.5 579.5q0 339 239.5 579t579.5 240q317 0 551 -213l-68 -62q-206 183 -483 183q-301 0 -514 -213t-213 -514q0 -302 213 -515t514 -213q277 0 483 183zM1000.5 1802q22.5 -22 22.5 -54t-22.5 -54
t-53.5 -22q-32 0 -54.5 22t-22.5 54t22.5 54t54.5 22q31 0 53.5 -22z" />
    <glyph glyph-name="cdotaccent" unicode="&#x10b;" horiz-adv-x="1177" 
d="M992 236l95 -34q-26 -36 -59 -69q-161 -161 -389 -161q-227 0 -388 161t-161 389q0 227 161 388t388 161q228 0 389 -161q33 -33 59 -68l-95 -35q-15 18 -32 36q-133 132 -321 132q-187 0 -320 -132.5t-133 -320.5t133 -321t320 -133q188 0 321 133q17 17 32 35z
M682.5 1281q22.5 -22 22.5 -53q0 -32 -22.5 -54.5t-53.5 -22.5q-32 0 -54.5 22.5t-22.5 54.5q0 31 22.5 53t54.5 22q31 0 53.5 -22z" />
    <glyph glyph-name="Ccaron" unicode="&#x10c;" horiz-adv-x="1595" 
d="M1427 255l68 -61q-234 -213 -551 -213q-340 0 -579.5 239.5t-239.5 579.5q0 339 239.5 579t579.5 240q317 0 551 -213l-68 -62q-206 183 -483 183q-301 0 -514 -213t-213 -514q0 -302 213 -515t514 -213q277 0 483 183zM875 1658l-229 234h105l176 -143l186 143h104
l-238 -234h-104z" />
    <glyph glyph-name="ccaron" unicode="&#x10d;" horiz-adv-x="1177" 
d="M992 236l95 -34q-26 -36 -59 -69q-161 -161 -389 -161q-227 0 -388 161t-161 389q0 227 161 388t388 161q228 0 389 -161q33 -33 59 -68l-95 -35q-15 18 -32 36q-133 132 -321 132q-187 0 -320 -132.5t-133 -320.5t133 -321t320 -133q188 0 321 133q17 17 32 35z
M583 1090l-229 234h105l176 -143l186 143h104l-238 -234h-104z" />
    <glyph glyph-name="Dcroat" unicode="&#x110;" horiz-adv-x="1284" 
d="M210 845v755h90v-2h7q395 0 612 -218q240 -241 240 -580q0 -340 -240 -580q-217 -218 -612 -218h-7v-2h-90v755h-160v90h160zM300 845h370v-90h-370v-662h7q356 0 547 192q213 213 213 515q0 301 -213 515q-191 191 -547 191h-7v-661z" />
    <glyph glyph-name="dcroat" unicode="&#x111;" horiz-adv-x="1360" 
d="M1120 432v178q-25 132 -125 232q-133 133 -321 133t-321 -133t-133 -321t133 -320.5t321 -132.5t321 133q100 100 125 231zM1210 1283v-1283h-90v200q-26 -35 -57 -67q-161 -161 -389 -161q-227 0 -388 161t-161 388q0 228 161 389t388 161q228 0 389 -161q31 -32 57 -67
v440h-291v90h291v227h90v-227h99v-90h-99z" />
    <glyph glyph-name="Emacron" unicode="&#x112;" horiz-adv-x="1075" 
d="M950 1600v-90h-710v-665h710v-90h-710v-665h710v-90h-800v1600h800zM255 1755h590v-70h-590v70z" />
    <glyph glyph-name="emacron" unicode="&#x113;" horiz-adv-x="1266" 
d="M337 184q127 -116 302 -116q188 0 321 133q17 17 32 35l95 -34q-26 -36 -59 -69q-161 -161 -389 -161q-227 0 -388 161t-161 389q0 227 161 388t388 161q195 0 341 -117q24 -20 48 -44q9 -9 17 -18l-68 -68zM911 885q-117 90 -272 90q-187 0 -320 -132.5t-133 -320.5
q0 -155 90 -272zM338 1227h590v-70h-590v70z" />
    <glyph glyph-name="Ebreve" unicode="&#x114;" horiz-adv-x="1075" 
d="M950 1600v-90h-710v-665h710v-90h-710v-665h710v-90h-800v1600h800zM389 1856q8 -53 46 -91q48 -48 116 -48q67 0 115 48q39 38 46 91h73q-8 -83 -68 -143q-68 -69 -166 -69q-99 0 -167 69q-65 66 -69 143h74z" />
    <glyph glyph-name="ebreve" unicode="&#x115;" horiz-adv-x="1266" 
d="M337 184q127 -116 302 -116q188 0 321 133q17 17 32 35l95 -34q-26 -36 -59 -69q-161 -161 -389 -161q-227 0 -388 161t-161 389q0 227 161 388t388 161q195 0 341 -117q24 -20 48 -44q9 -9 17 -18l-68 -68zM911 885q-117 90 -272 90q-187 0 -320 -132.5t-133 -320.5
q0 -155 90 -272zM472 1338q8 -53 46 -91q48 -48 116 -48q67 0 115 48q39 38 46 91h73q-8 -83 -68 -143q-68 -69 -166 -69q-99 0 -167 69q-65 66 -69 143h74z" />
    <glyph glyph-name="Edotaccent" unicode="&#x116;" horiz-adv-x="1075" 
d="M950 1600v-90h-710v-665h710v-90h-710v-665h710v-90h-800v1600h800zM604.5 1802q22.5 -22 22.5 -54t-22.5 -54t-53.5 -22q-32 0 -54.5 22t-22.5 54t22.5 54t54.5 22q31 0 53.5 -22z" />
    <glyph glyph-name="edotaccent" unicode="&#x117;" horiz-adv-x="1266" 
d="M337 184q127 -116 302 -116q188 0 321 133q17 17 32 35l95 -34q-26 -36 -59 -69q-161 -161 -389 -161q-227 0 -388 161t-161 389q0 227 161 388t388 161q195 0 341 -117q24 -20 48 -44q9 -9 17 -18l-68 -68zM911 885q-117 90 -272 90q-187 0 -320 -132.5t-133 -320.5
q0 -155 90 -272zM687.5 1281q22.5 -22 22.5 -54t-22.5 -54t-53.5 -22q-32 0 -54.5 22t-22.5 54t22.5 54t54.5 22q31 0 53.5 -22z" />
    <glyph glyph-name="Eogonek" unicode="&#x118;" horiz-adv-x="1075" 
d="M546 0h-396v1600h800v-90h-710v-665h710v-90h-710v-665h710v-90h-344q-13 -40 -13 -68q0 -43 30 -72.5t72 -29.5q43 0 69 26.5t33 79.5l55 -21v-2q0 -57 -43 -101q-45 -46 -114 -46q-68 0 -116 49t-48 117q0 38 15 68z" />
    <glyph glyph-name="eogonek" unicode="&#x119;" horiz-adv-x="1266" 
d="M206 663h862q-32 103 -108 179q-133 133 -321 133t-321 -133q-80 -80 -112 -179zM580 -25q-189 18 -329 158q-161 161 -161 388q0 228 161 389t388 161q228 0 389 -161q142 -143 148 -338l-988 1q-3 -25 -3 -52q0 -188 133 -320.5t321 -132.5t321 133q23 23 43 48l96 -34
q-17 -28 -71 -82q-160 -160 -386 -161q-6 -23 -6 -41q0 -42 30 -72t72 -30q43 0 69 26.5t33 80.5l55 -22v-2q0 -57 -43 -101q-45 -45 -114 -45q-68 0 -116 48.5t-48 116.5q0 23 6 44z" />
    <glyph glyph-name="Ecaron" unicode="&#x11a;" horiz-adv-x="1075" 
d="M950 1600v-90h-710v-665h710v-90h-710v-665h710v-90h-800v1600h800zM495 1658l-229 234h105l176 -143l186 143h104l-238 -234h-104z" />
    <glyph glyph-name="ecaron" unicode="&#x11b;" horiz-adv-x="1266" 
d="M337 184q127 -116 302 -116q188 0 321 133q17 17 32 35l95 -34q-26 -36 -59 -69q-161 -161 -389 -161q-227 0 -388 161t-161 389q0 227 161 388t388 161q195 0 341 -117q24 -20 48 -44q9 -9 17 -18l-68 -68zM911 885q-117 90 -272 90q-187 0 -320 -132.5t-133 -320.5
q0 -155 90 -272zM578 1090l-229 234h105l176 -143l186 143h104l-238 -234h-104z" />
    <glyph glyph-name="Gcircumflex" unicode="&#x11c;" horiz-adv-x="1620" 
d="M1489 199q-228 -218 -545 -218q-340 0 -579.5 239.5t-239.5 579.5q0 339 239.5 579t579.5 240q317 0 551 -213l-68 -62q-206 183 -483 183q-301 0 -514 -213t-213 -514q0 -302 213 -515t514 -213q258 0 455 159v488h90v-520zM979 1892l238 -234h-104l-186 143l-176 -143
h-105l229 234h104z" />
    <glyph glyph-name="gcircumflex" unicode="&#x11d;" horiz-adv-x="1364" 
d="M1119 615q-26 129 -124 227q-133 133 -321 133t-321 -133t-133 -321t133 -321t321 -133t321 133q97 97 124 225v190zM1117 195q-25 -32 -54 -62q-161 -161 -389 -161q-227 0 -388 161t-161 388q0 228 161 388.5t388 160.5q228 0 389 -160q31 -32 57 -67v139h90v-763
q0 -221 -157 -378q-161 -161 -388 -161q-228 0 -389 161q-33 33 -59 69l95 34q15 -18 32 -35q133 -133 321 -133q187 0 320 133q121 121 132 286zM716 1324l238 -234h-104l-186 143l-176 -143h-105l229 234h104z" />
    <glyph glyph-name="Gbreve" unicode="&#x11e;" horiz-adv-x="1620" 
d="M1489 199q-228 -218 -545 -218q-340 0 -579.5 239.5t-239.5 579.5q0 339 239.5 579t579.5 240q317 0 551 -213l-68 -62q-206 183 -483 183q-301 0 -514 -213t-213 -514q0 -302 213 -515t514 -213q258 0 455 159v488h90v-520zM779 1856q8 -53 46 -91q48 -48 116 -48
q67 0 115 48q39 38 46 91h73q-8 -83 -68 -143q-68 -69 -166 -69q-99 0 -167 69q-65 66 -69 143h74z" />
    <glyph glyph-name="gbreve" unicode="&#x11f;" horiz-adv-x="1364" 
d="M1119 615q-26 129 -124 227q-133 133 -321 133t-321 -133t-133 -321t133 -321t321 -133t321 133q97 97 124 225v190zM1117 195q-25 -32 -54 -62q-161 -161 -389 -161q-227 0 -388 161t-161 388q0 228 161 388.5t388 160.5q228 0 389 -160q31 -32 57 -67v139h90v-763
q0 -221 -157 -378q-161 -161 -388 -161q-228 0 -389 161q-33 33 -59 69l95 34q15 -18 32 -35q133 -133 321 -133q187 0 320 133q121 121 132 286zM507 1338q8 -53 46 -91q48 -48 116 -48q67 0 115 48q39 38 46 91h73q-8 -83 -68 -143q-68 -69 -166 -69q-99 0 -167 69
q-65 66 -69 143h74z" />
    <glyph glyph-name="Gdotaccent" unicode="&#x120;" horiz-adv-x="1620" 
d="M1489 199q-228 -218 -545 -218q-340 0 -579.5 239.5t-239.5 579.5q0 339 239.5 579t579.5 240q317 0 551 -213l-68 -62q-206 183 -483 183q-301 0 -514 -213t-213 -514q0 -302 213 -515t514 -213q258 0 455 159v488h90v-520zM994.5 1802q22.5 -22 22.5 -54t-22.5 -54
t-53.5 -22q-32 0 -54.5 22t-22.5 54t22.5 54t54.5 22q31 0 53.5 -22z" />
    <glyph glyph-name="gdotaccent" unicode="&#x121;" horiz-adv-x="1364" 
d="M1119 615q-26 129 -124 227q-133 133 -321 133t-321 -133t-133 -321t133 -321t321 -133t321 133q97 97 124 225v190zM1117 195q-25 -32 -54 -62q-161 -161 -389 -161q-227 0 -388 161t-161 388q0 228 161 388.5t388 160.5q228 0 389 -160q31 -32 57 -67v139h90v-763
q0 -221 -157 -378q-161 -161 -388 -161q-228 0 -389 161q-33 33 -59 69l95 34q15 -18 32 -35q133 -133 321 -133q187 0 320 133q121 121 132 286zM721.5 1281q22.5 -22 22.5 -54t-22.5 -54t-53.5 -22q-32 0 -54.5 22t-22.5 54t22.5 54t54.5 22q31 0 53.5 -22z" />
    <glyph glyph-name="Ibreve" unicode="&#x12c;" horiz-adv-x="420" 
d="M255 1600v-1600h-90v1600h90zM49 1856q8 -53 46 -91q48 -48 116 -48q67 0 115 48q39 38 46 91h73q-8 -83 -68 -143q-68 -69 -166 -69q-99 0 -167 69q-65 66 -69 143h74z" />
    <glyph glyph-name="ibreve" unicode="&#x12d;" horiz-adv-x="420" 
d="M255 982v-982h-90v982h90zM49 1238q8 -53 46 -91q48 -48 116 -48q67 0 115 48q39 38 46 91h73q-8 -83 -68 -143q-68 -69 -166 -69q-99 0 -167 69q-65 66 -69 143h74z" />
    <glyph glyph-name="Ldot" unicode="&#x13f;" horiz-adv-x="950" 
d="M150 0v1600h90v-1510h620v-90h-710zM791.5 854q22.5 -22 22.5 -54t-22.5 -54t-53.5 -22q-32 0 -54.5 22t-22.5 54t22.5 54t54.5 22q31 0 53.5 -22z" />
    <glyph glyph-name="ldot" unicode="&#x140;" horiz-adv-x="593" 
d="M240 1600v-1600h-90v1600h90zM470.5 854q22.5 -22 22.5 -54t-22.5 -54t-53.5 -22q-32 0 -54.5 22t-22.5 54t22.5 54t54.5 22q31 0 53.5 -22z" />
    <glyph glyph-name="Nacute" unicode="&#x143;" horiz-adv-x="1311" 
d="M150 1600h99l822 -1423v1423h90v-1600h-90l-831 1437v-1437h-90v1600zM875 1805l-245 -187h-84l163 187h166z" />
    <glyph glyph-name="nacute" unicode="&#x144;" horiz-adv-x="1071" 
d="M240 763v-763h-90v982h90v-63q123 122 286 122q174 0 283 -109t112 -275v-657h-90v649q0 125 -90.5 213.5t-214.5 88.5t-214 -87q-49 -49 -72 -101zM755 1287l-245 -187h-84l163 187h166z" />
    <glyph glyph-name="Ncaron" unicode="&#x147;" horiz-adv-x="1311" 
d="M150 1600h99l822 -1423v1423h90v-1600h-90l-831 1437v-1437h-90v1600zM600 1608l-229 234h105l176 -143l186 143h104l-238 -234h-104z" />
    <glyph glyph-name="ncaron" unicode="&#x148;" horiz-adv-x="1071" 
d="M240 763v-763h-90v982h90v-63q123 122 286 122q174 0 283 -109t112 -275v-657h-90v649q0 125 -90.5 213.5t-214.5 88.5t-214 -87q-49 -49 -72 -101zM480 1090l-229 234h105l176 -143l186 143h104l-238 -234h-104z" />
    <glyph glyph-name="Omacron" unicode="&#x14c;" horiz-adv-x="1892" 
d="M1526.5 1382.5q240.5 -240.5 240.5 -580.5t-240.5 -580.5t-580.5 -240.5t-580.5 240.5t-240.5 580.5t240.5 580.5t580.5 240.5t580.5 -240.5zM946 1531q-302 0 -515.5 -213.5t-213.5 -515.5t213.5 -516t515.5 -214t515.5 214t213.5 516t-213.5 515.5t-515.5 213.5z
M651 1745h590v-70h-590v70z" />
    <glyph glyph-name="omacron" unicode="&#x14d;" horiz-adv-x="1278" 
d="M639 1071q228 0 388.5 -161t160.5 -389q0 -227 -160.5 -388t-388.5 -161q-227 0 -388 161t-161 388q0 228 161 389t388 161zM318 842q-133 -133 -133 -321t133 -320.5t321 -132.5t321 132.5t133 320.5t-133 321t-321 133t-321 -133zM344 1199h590v-70h-590v70z" />
    <glyph glyph-name="Obreve" unicode="&#x14e;" horiz-adv-x="1892" 
d="M1526.5 1382.5q240.5 -240.5 240.5 -580.5t-240.5 -580.5t-580.5 -240.5t-580.5 240.5t-240.5 580.5t240.5 580.5t580.5 240.5t580.5 -240.5zM946 1531q-302 0 -515.5 -213.5t-213.5 -515.5t213.5 -516t515.5 -214t515.5 214t213.5 516t-213.5 515.5t-515.5 213.5z
M785 1856q8 -53 46 -91q48 -48 116 -48q67 0 115 48q39 38 46 91h73q-8 -83 -68 -143q-68 -69 -166 -69q-99 0 -167 69q-65 66 -69 143h74z" />
    <glyph glyph-name="obreve" unicode="&#x14f;" horiz-adv-x="1278" 
d="M639 1071q228 0 388.5 -161t160.5 -389q0 -227 -160.5 -388t-388.5 -161q-227 0 -388 161t-161 388q0 228 161 389t388 161zM318 842q-133 -133 -133 -321t133 -320.5t321 -132.5t321 132.5t133 320.5t-133 321t-321 133t-321 -133zM478 1338q8 -53 46 -91
q48 -48 116 -48q67 0 115 48q39 38 46 91h73q-8 -83 -68 -143q-68 -69 -166 -69q-99 0 -167 69q-65 66 -69 143h74z" />
    <glyph glyph-name="Ohungarumlaut" unicode="&#x150;" horiz-adv-x="1892" 
d="M1526.5 1382.5q240.5 -240.5 240.5 -580.5t-240.5 -580.5t-580.5 -240.5t-580.5 240.5t-240.5 580.5t240.5 580.5t580.5 240.5t580.5 -240.5zM946 1531q-302 0 -515.5 -213.5t-213.5 -515.5t213.5 -516t515.5 -214t515.5 214t213.5 516t-213.5 515.5t-515.5 213.5z
M1056 1836l-245 -187h-84l163 187h166zM1285 1836l-245 -187h-84l163 187h166z" />
    <glyph glyph-name="ohungarumlaut" unicode="&#x151;" horiz-adv-x="1278" 
d="M639 1071q228 0 388.5 -161t160.5 -389q0 -227 -160.5 -388t-388.5 -161q-227 0 -388 161t-161 388q0 228 161 389t388 161zM318 842q-133 -133 -133 -321t133 -320.5t321 -132.5t321 132.5t133 320.5t-133 321t-321 133t-321 -133zM749 1268l-245 -187h-84l163 187h166z
M978 1268l-245 -187h-84l163 187h166z" />
    <glyph glyph-name="OE" unicode="&#x152;" horiz-adv-x="2295" 
d="M1330 1510q86 -52 162 -127q225 -226 239 -538h439v-90h-439q-16 -310 -239 -533q-79 -79 -168 -132h846v-90h-1000q-121 -19 -259 -19q-340 0 -580.5 240.5t-240.5 580.5t240.5 580.5t580.5 240.5q138 0 259 -23h1000v-90h-840zM1639 845q-14 274 -212 473
q-78 77 -167 126q-44 24 -90 42q-120 45 -259 45q-302 0 -515.5 -213.5t-213.5 -515.5t213.5 -516t515.5 -214q139 0 259 45q46 18 90 42q89 49 167 127q196 197 212 469q1 23 1 47q0 22 -1 43z" />
    <glyph glyph-name="oe" unicode="&#x153;" horiz-adv-x="2127" 
d="M185 521q0 -188 133 -320.5t321 -132.5t321 132.5t133 320.5t-133 321t-321 133t-321 -133t-133 -321zM1126 779q29 -55 45 -116h758q-32 103 -108 179q-133 133 -321 133t-321 -133q-30 -30 -53 -63zM1125 263q24 -32 54 -62q133 -133 321 -133t321 133q23 23 43 48
l96 -34q-17 -28 -71 -82q-161 -161 -389 -161q-227 0 -388 161q-23 23 -42 47q-20 -24 -42 -47q-161 -161 -389 -161q-227 0 -388 161t-161 388q0 228 161 389t388 161q228 0 389 -161q22 -23 42 -47q19 24 42 47q161 161 388 161q228 0 389 -161q142 -143 148 -338l-851 1
q2 -26 2 -52q0 -142 -63 -258z" />
    <glyph glyph-name="Ydieresis" unicode="&#x178;" horiz-adv-x="1291" 
d="M600 647l-550 953h103l492 -853l493 853h103l-551 -953v-647h-90v647zM559.5 1822q26.5 -26 26.5 -63q0 -38 -26.5 -64t-63.5 -26t-63.5 26t-26.5 64q0 37 26.5 63t63.5 26t63.5 -26zM859.5 1822q26.5 -26 26.5 -63q0 -38 -26.5 -64t-63.5 -26t-63.5 26t-26.5 64
q0 37 26.5 63t63.5 26t63.5 -26z" />
    <glyph glyph-name="Ygrave" unicode="&#x1ef2;" horiz-adv-x="1291" 
d="M600 647l-550 953h103l492 -853l493 853h103l-551 -953v-647h-90v647zM592 1805l163 -187h-84l-245 187h166z" />
    <glyph glyph-name="ygrave" unicode="&#x1ef3;" horiz-adv-x="1005" 
d="M503 88l-222 -463h-88l265 556l-383 801h102l326 -704l326 704h101l-427 -895v1zM449 1287l163 -187h-84l-245 187h166z" />
    <glyph glyph-name="perthousand" unicode="&#x2030;" horiz-adv-x="1772" 
d="M1107 1314l-918 -1311l-74 51l918 1311zM474.5 1147.5q67.5 -67.5 67.5 -163.5t-67.5 -163.5t-163.5 -67.5t-163.5 67.5t-67.5 163.5t67.5 163.5t163.5 67.5t163.5 -67.5zM311 1128q-60 0 -102 -42t-42 -102t42 -102t102 -42q59 0 101.5 42t42.5 102t-42.5 102t-101.5 42
zM1074.5 547.5q67.5 -67.5 67.5 -163.5t-67.5 -163.5t-163.5 -67.5t-163.5 67.5t-67.5 163.5t67.5 163.5t163.5 67.5t163.5 -67.5zM911 528q-60 0 -102 -42t-42 -102t42 -102t102 -42q59 0 101.5 42t42.5 102t-42.5 102t-101.5 42zM1624.5 547.5q67.5 -67.5 67.5 -163.5
t-67.5 -163.5t-163.5 -67.5t-163.5 67.5t-67.5 163.5t67.5 163.5t163.5 67.5t163.5 -67.5zM1461 528q-60 0 -102 -42t-42 -102t42 -102t102 -42q59 0 101.5 42t42.5 102t-42.5 102t-101.5 42z" />
    <glyph glyph-name="peseta" unicode="&#x20a7;" horiz-adv-x="1855" 
d="M231 1509v-863h245q160 0 274 126.5t114 305.5t-114 305t-274 126h-245zM917 892q-34 -101 -109 -184q-138 -153 -332 -153h-245v-555h-81v1600h378q164 -25 280 -153q138 -153 138 -369q0 -50 -7 -96h84v418h90v-418h248q53 32 119 32q98 0 162 -64q62 -63 62 -143v-5
l-78 -31q-10 76 -47.5 114t-98.5 38q-60 0 -103 -42.5t-43 -103.5q0 -60 43 -103q25 -25 106 -76q128 -70 182 -124q85 -86 85 -205q0 -122 -85 -207.5t-206 -85.5t-206 85.5t-85 187.5l89 23q0 -88 59.5 -147t142.5 -59t142.5 59t59.5 144q0 83 -59 142q-32 32 -129 94
q-115 62 -159 106q-69 69 -69 166q0 63 29 115h-161v-892h-90v892h-106z" />
    <glyph glyph-name="germandbls" unicode="&#xdf;" horiz-adv-x="1084" 
d="M431 1608h16q121 0 206 -70q91 -75 99 -227v-17q0 -140 -129 -222q358 -143 371 -521q0 -227 -160 -393q-149 -154 -356 -157v-1h-167v90h167v-1q167 11 288 137q133 137 133 325t-133 321t-355 133v96q139 7 196 59.5t57 141.5q0 88 -56 152q-53 60 -151 60h-11
q-106 -4 -158 -65.5t-58 -182.5v-1266h-90v1281q10 162 85 242t206 85z" />
    <glyph glyph-name="Aogonek" unicode="&#x104;" horiz-adv-x="1291" 
d="M890 703l-244 671l-244 -671h488zM1136 29l-213 584h-554l-223 -613h-96l596 1637l595 -1637h-31q-54 -23 -79 -49q-30 -29 -30 -70v-2q1 -43 30 -73q30 -29 68 -29q37 0 79 32l24 -53l-4 -3q-39 -39 -99 -39h-3q-63 0 -110 47q-48 48 -48 116l1 1q0 69 48 117
q23 23 49 34z" />
    <glyph glyph-name="aogonek" unicode="&#x105;" horiz-adv-x="1360" 
d="M1120 432v178q-25 132 -125 232q-133 133 -321 133t-321 -133t-133 -321t133 -320.5t321 -132.5t321 133q100 100 125 231zM1120 34v166q-26 -35 -57 -67q-161 -161 -389 -161q-227 0 -388 161t-161 388q0 228 161 389t388 161q228 0 389 -161q31 -32 57 -67v139h90v-982
h-31q-54 -23 -79 -49q-30 -29 -30 -70v-2q1 -43 30 -73q30 -29 68 -29q37 0 79 32l24 -53l-4 -3q-39 -39 -99 -39h-3q-63 0 -110 47q-48 48 -48 116l1 1q0 69 48 117q29 29 64 39z" />
    <glyph glyph-name="Dcaron" unicode="&#x10e;" horiz-adv-x="1199" 
d="M240 1506v-1413h7q356 0 547 192q213 213 213 515q0 301 -213 515q-191 191 -547 191h-7zM240 1598h7q395 0 612 -218q240 -241 240 -580q0 -340 -240 -580q-217 -218 -612 -218h-7v-2h-90v1600h90v-2zM568 1608l-229 234h105l176 -143l186 143h104l-238 -234h-104z" />
    <glyph glyph-name="dcaron" unicode="&#x10f;" horiz-adv-x="1470" 
d="M1210 0h-90v200q-26 -35 -57 -67q-161 -161 -389 -161q-227 0 -388 161t-161 388q0 228 161 389t388 161q228 0 389 -161q31 -32 57 -67v757h90v-1600zM1120 432v178q-25 132 -125 232q-133 133 -321 133t-321 -133t-133 -321t133 -320.5t321 -132.5t321 133
q100 100 125 231zM1357 1427q-23 5 -40 23q-27 26 -27 64q0 37 26.5 63t63.5 26t63.5 -26t26.5 -63q0 -21 -7 -39l-98 -198h-65z" />
    <glyph glyph-name="Gcommaaccent" unicode="&#x122;" horiz-adv-x="1620" 
d="M908 -18q-317 12 -543 239q-240 239 -240 579q0 339 239.5 579t579.5 240q317 0 551 -213l-68 -62q-206 183 -483 183q-301 0 -514 -213t-213 -514q0 -302 213 -515t514 -213q258 0 455 159v488h90v-520q-214 -205 -506 -217l-6 -17q108 0 133 -42q11 -20 11 -41
q0 -25 -14 -53q-28 -53 -74 -69q-39 -13 -82 -13h-16q-52 3 -82 23l41 37q11 -4 34 -6h9q20 0 42 6q28 8 41 31q6 13 6 23q0 9 -4 16q-25 28 -57 32q-12 1 -29 1q-29 0 -74 -4z" />
    <glyph glyph-name="gcommaaccent" unicode="&#x123;" horiz-adv-x="1364" 
d="M1119 615q-26 129 -124 227q-133 133 -321 133t-321 -133t-133 -321t133 -321t321 -133t321 133q97 97 124 225v190zM1117 195q-25 -32 -54 -62q-161 -161 -389 -161q-227 0 -388 161t-161 388q0 228 161 388.5t388 160.5q228 0 389 -160q31 -32 57 -67v139h90v-763
q0 -221 -157 -378q-161 -161 -388 -161q-228 0 -389 161q-33 33 -59 69l95 34q15 -18 32 -35q133 -133 321 -133q187 0 320 133q121 121 132 286zM717 1311q23 -5 40 -23q27 -26 27 -64q0 -37 -26.5 -63t-63.5 -26t-63.5 26t-26.5 63q0 21 7 39l98 198h65z" />
    <glyph glyph-name="Hcircumflex" unicode="&#x124;" horiz-adv-x="1150" 
d="M240 717v-717h-90v1600h90v-793h670v793h90v-1600h-90v717h-670zM623 1842l238 -234h-104l-186 143l-176 -143h-105l229 234h104z" />
    <glyph glyph-name="hcircumflex" unicode="&#x125;" horiz-adv-x="1059" 
d="M150 1600h90v-669q114 110 274 110q174 0 283 -109t112 -275v-657h-90v649q0 125 -90.5 213.5t-214.5 88.5t-214 -87q-40 -40 -60 -83v-781h-90v1600zM577 1892l238 -234h-104l-186 143l-176 -143h-105l229 234h104z" />
    <glyph glyph-name="Itilde" unicode="&#x128;" 
d="M260 1600v-1600h-90v1600h90zM210 1773q75 -60 124 -60h5q50 3 70 84h69q-21 -129 -99 -152q-21 -6 -42 -6q-57 0 -115 46q-75 59 -124 59h-5q-50 -3 -70 -84h-70q22 129 100 152q21 6 42 6q57 0 115 -45z" />
    <glyph glyph-name="itilde" unicode="&#x129;" 
d="M260 982v-982h-90v982h90zM210 1155q75 -60 124 -60h5q50 3 70 84h69q-21 -129 -99 -152q-21 -6 -42 -6q-57 0 -115 46q-75 59 -124 59h-5q-50 -3 -70 -84h-70q22 129 100 152q21 6 42 6q57 0 115 -45z" />
    <glyph glyph-name="Imacron" unicode="&#x12a;" 
d="M260 1600v-1600h-90v1600h90zM-80 1745h590v-70h-590v70z" />
    <glyph glyph-name="imacron" unicode="&#x12b;" 
d="M260 982v-982h-90v982h90zM-80 1127h590v-70h-590v70z" />
    <glyph glyph-name="Iogonek" unicode="&#x12e;" 
d="M170 34v1566h90v-1600h-31q-54 -23 -79 -49q-30 -29 -30 -70v-2q1 -43 30 -73q30 -29 68 -29q37 0 79 32l24 -53l-4 -3q-39 -39 -99 -39h-3q-63 0 -110 47q-48 48 -48 116l1 1q0 69 48 117q29 29 64 39z" />
    <glyph glyph-name="iogonek" unicode="&#x12f;" 
d="M278.5 1304q26.5 -26 26.5 -63q0 -38 -26.5 -64t-63.5 -26t-63.5 26t-26.5 64q0 37 26.5 63t63.5 26t63.5 -26zM170 39v943h90v-982h-76q-54 -23 -79 -49q-30 -29 -30 -70v-2q1 -43 30 -73q30 -29 68 -29q37 0 79 32l24 -53l-4 -3q-39 -39 -99 -39h-3q-63 0 -110 47
q-48 48 -48 116l1 1q0 69 48 117q44 44 102 44h7z" />
    <glyph glyph-name="Idotaccent" unicode="&#x130;" 
d="M260 1600v-1600h-90v1600h90zM269.5 1799q22.5 -22 22.5 -54t-22.5 -54t-53.5 -22q-32 0 -54.5 22t-22.5 54t22.5 54t54.5 22q31 0 53.5 -22z" />
    <glyph glyph-name="Lacute" unicode="&#x139;" horiz-adv-x="950" 
d="M150 0v1600h90v-1510h620v-90h-710zM724 1805l-245 -187h-84l163 187h166z" />
    <glyph glyph-name="lacute" unicode="&#x13a;" horiz-adv-x="390" 
d="M240 1600v-1600h-90v1600h90zM360 1892l-245 -187h-84l163 187h166z" />
    <glyph glyph-name="Eng" unicode="&#x14a;" horiz-adv-x="1311" 
d="M1070 2l-830 1435v-1437h-90v1600h99l821 -1421v765h1v656h90v-1600h-1q-10 -277 -151 -346l-41 45q105 95 105 249q0 26 -3 54z" />
    <glyph glyph-name="eng" unicode="&#x14b;" horiz-adv-x="1071" 
d="M831 544v105q0 125 -90.5 213.5t-214.5 88.5t-214 -87q-49 -49 -72 -101v-763h-90v982h90v-63q123 122 286 122q174 0 283 -109t112 -275v-657h-1q-20 -249 -151 -346l-40 40q82 57 101 266v584h1z" />
    <glyph glyph-name="Racute" unicode="&#x154;" horiz-adv-x="1089" 
d="M240 1509v-863h272q178 0 304.5 126.5t126.5 305.5t-126.5 305t-304.5 126h-272zM539 556q-13 -1 -27 -1h-272v-555h-90v1600h420q183 -25 311 -153q153 -153 153 -369q0 -217 -153 -370q-106 -106 -243 -139l369 -569h-111zM811 1805l-245 -187h-84l163 187h166z" />
    <glyph glyph-name="racute" unicode="&#x155;" horiz-adv-x="599" 
d="M150 982h90v-179q28 40 65 77q119 119 244 125v-98q-85 -4 -176 -95q-128 -127 -133 -305v-507h-90v982zM569 1187l-245 -187h-84l163 187h166z" />
    <glyph glyph-name="Rcaron" unicode="&#x158;" horiz-adv-x="1089" 
d="M240 1509v-863h272q178 0 304.5 126.5t126.5 305.5t-126.5 305t-304.5 126h-272zM539 556q-13 -1 -27 -1h-272v-555h-90v1600h420q183 -25 311 -153q153 -153 153 -369q0 -217 -153 -370q-106 -106 -243 -139l369 -569h-111zM536 1608l-229 234h105l176 -143l186 143h104
l-238 -234h-104z" />
    <glyph glyph-name="rcaron" unicode="&#x159;" horiz-adv-x="599" 
d="M150 982h90v-179q28 40 65 77q119 119 244 125v-98q-85 -4 -176 -95q-128 -127 -133 -305v-507h-90v982zM293 990l-229 234h105l176 -143l186 143h104l-238 -234h-104z" />
    <glyph glyph-name="Sacute" unicode="&#x15a;" horiz-adv-x="1042" 
d="M548 886q-171 57 -270 156t-99 240q0 138 99 237.5t240 99.5q140 0 240 -99q55 -53 76 -119l-81 -32q-18 49 -59 90q-73 72 -176 72t-176 -72.5t-73 -176.5q0 -103 73 -176q68 -67 188 -123q192 -62 323 -193q139 -138 139 -334q0 -197 -139 -336t-335 -139t-335 140
q-111 111 -133 258l85 31q14 -130 111 -227q113 -113 272 -113q160 0 273 113t113 273q0 159 -113 272q-99 99 -243 158zM740 1825l-245 -187h-84l163 187h166z" />
    <glyph glyph-name="sacute" unicode="&#x15b;" horiz-adv-x="802" 
d="M420 505q-115 62 -159 106q-69 69 -69 166q0 98 69 167.5t166 69.5q98 0 162 -64q62 -63 62 -143v-5l-78 -31q-10 76 -47.5 114t-98.5 38q-60 0 -103 -42.5t-43 -103.5q0 -60 43 -103q25 -25 106 -76q128 -70 182 -124q85 -86 85 -205q0 -122 -85 -207.5t-206 -85.5
t-206 85.5t-85 187.5l89 23q0 -88 59.5 -147t142.5 -59t142.5 59t59.5 144q0 83 -59 142q-32 32 -129 94zM625 1207l-245 -187h-84l163 187h166z" />
    <glyph glyph-name="Scircumflex" unicode="&#x15c;" horiz-adv-x="1042" 
d="M548 886q-171 57 -270 156t-99 240q0 138 99 237.5t240 99.5q140 0 240 -99q55 -53 76 -119l-81 -32q-18 49 -59 90q-73 72 -176 72t-176 -72.5t-73 -176.5q0 -103 73 -176q68 -67 188 -123q192 -62 323 -193q139 -138 139 -334q0 -197 -139 -336t-335 -139t-335 140
q-111 111 -133 258l85 31q14 -130 111 -227q113 -113 272 -113q160 0 273 113t113 273q0 159 -113 272q-99 99 -243 158zM569 1842l238 -234h-104l-186 143l-176 -143h-105l229 234h104z" />
    <glyph glyph-name="scircumflex" unicode="&#x15d;" horiz-adv-x="802" 
d="M420 505q-115 62 -159 106q-69 69 -69 166q0 98 69 167.5t166 69.5q98 0 162 -64q62 -63 62 -143v-5l-78 -31q-10 76 -47.5 114t-98.5 38q-60 0 -103 -42.5t-43 -103.5q0 -60 43 -103q25 -25 106 -76q128 -70 182 -124q85 -86 85 -205q0 -122 -85 -207.5t-206 -85.5
t-206 85.5t-85 187.5l89 23q0 -88 59.5 -147t142.5 -59t142.5 59t59.5 144q0 83 -59 142q-32 32 -129 94zM454 1224l238 -234h-104l-186 143l-176 -143h-105l229 234h104z" />
    <glyph glyph-name="Scedilla" unicode="&#x15e;" horiz-adv-x="1042" 
d="M445 -14q-150 22 -262 135q-111 111 -133 258l85 31q14 -130 111 -227q113 -113 272 -113q160 0 273 113t113 273q0 159 -113 272q-99 99 -243 158q-171 57 -270 156t-99 240q0 138 99 237.5t240 99.5q140 0 240 -99q55 -53 76 -119l-81 -32q-18 49 -59 90
q-73 72 -176 72t-176 -72.5t-73 -176.5q0 -103 73 -176q68 -67 188 -123q192 -62 323 -193q139 -138 139 -334q0 -197 -139 -336t-335 -139h-2l-5 -16q108 0 133 -42q11 -20 11 -41q0 -25 -14 -53q-28 -53 -74 -69q-39 -13 -82 -13h-16q-52 3 -82 23l41 37q11 -4 34 -6h9
q20 0 42 6q28 8 41 31q6 13 6 23q0 9 -4 16q-25 28 -57 32q-12 1 -29 1q-29 0 -74 -4z" />
    <glyph glyph-name="scedilla" unicode="&#x15f;" horiz-adv-x="802" 
d="M329 -14q-72 19 -129 76q-85 85 -85 187l89 23q0 -88 59.5 -147t142.5 -59t142.5 59t59.5 144q0 83 -59 142q-32 32 -129 94q-115 62 -159 106q-69 69 -69 166q0 98 69 167.5t166 69.5q98 0 162 -64q62 -63 62 -143v-5l-78 -31q-10 76 -47.5 114t-98.5 38
q-60 0 -103 -42.5t-43 -103.5q0 -60 43 -103q25 -25 106 -76q128 -70 182 -124q85 -86 85 -205q0 -122 -85 -207.5t-206 -85.5h-6l-4 -11q108 0 133 -42q11 -20 11 -41q0 -25 -14 -53q-28 -53 -74 -69q-39 -13 -82 -13h-16q-52 3 -82 23l41 37q11 -4 34 -6h9q20 0 42 6
q28 8 41 31q6 13 6 23q0 9 -4 16q-25 28 -57 32q-12 1 -29 1q-29 0 -74 -4z" />
    <glyph glyph-name="Scaron" unicode="&#x160;" horiz-adv-x="1042" 
d="M548 886q-171 57 -270 156t-99 240q0 138 99 237.5t240 99.5q140 0 240 -99q55 -53 76 -119l-81 -32q-18 49 -59 90q-73 72 -176 72t-176 -72.5t-73 -176.5q0 -103 73 -176q68 -67 188 -123q192 -62 323 -193q139 -138 139 -334q0 -197 -139 -336t-335 -139t-335 140
q-111 111 -133 258l85 31q14 -130 111 -227q113 -113 272 -113q160 0 273 113t113 273q0 159 -113 272q-99 99 -243 158zM465 1628l-229 234h105l176 -143l186 143h104l-238 -234h-104z" />
    <glyph glyph-name="scaron" unicode="&#x161;" horiz-adv-x="802" 
d="M420 505q-115 62 -159 106q-69 69 -69 166q0 98 69 167.5t166 69.5q98 0 162 -64q62 -63 62 -143v-5l-78 -31q-10 76 -47.5 114t-98.5 38q-60 0 -103 -42.5t-43 -103.5q0 -60 43 -103q25 -25 106 -76q128 -70 182 -124q85 -86 85 -205q0 -122 -85 -207.5t-206 -85.5
t-206 85.5t-85 187.5l89 23q0 -88 59.5 -147t142.5 -59t142.5 59t59.5 144q0 83 -59 142q-32 32 -129 94zM350 1030l-229 234h105l176 -143l186 143h104l-238 -234h-104z" />
    <glyph glyph-name="Tcommaaccent" unicode="&#x162;" horiz-adv-x="1000" 
d="M462 0h-7v1510h-405v90h900v-90h-405v-1510h-13l-12 -35q108 0 133 -42q11 -20 11 -41q0 -25 -14 -53q-28 -53 -74 -69q-39 -13 -82 -13h-16q-52 3 -82 23l41 37q11 -4 34 -6h9q20 0 42 6q28 8 41 31q6 13 6 23q0 9 -4 16q-25 28 -57 32q-12 1 -29 1q-29 0 -74 -4z" />
    <glyph glyph-name="tcommaaccent" unicode="&#x163;" horiz-adv-x="670" 
d="M290 8v884h-200v90h200v418h90v-418h200v-90h-200v-892h-20l-5 -15q108 0 133 -42q11 -20 11 -41q0 -25 -14 -53q-28 -53 -74 -69q-39 -13 -82 -13h-16q-52 3 -82 23l41 37q11 -4 34 -6h9q20 0 42 6q28 8 41 31q6 13 6 23q0 9 -4 16q-25 28 -57 32q-12 1 -29 1
q-29 0 -74 -4z" />
    <glyph glyph-name="Utilde" unicode="&#x168;" horiz-adv-x="1345" 
d="M1104 1600h91v-1150q-25 -183 -153 -311q-153 -153 -369 -153q-217 0 -370 153t-153 369v1092h91v-1092q0 -178 126.5 -304.5t305.5 -126.5t305 126.5t126 304.5v1092zM667 1773q75 -60 124 -60h5q50 3 70 84h69q-21 -129 -99 -152q-21 -6 -42 -6q-57 0 -115 46
q-75 59 -124 59h-5q-50 -3 -70 -84h-70q22 129 100 152q21 6 42 6q57 0 115 -45z" />
    <glyph glyph-name="utilde" unicode="&#x169;" horiz-adv-x="1099" 
d="M555 -14q-184 0 -293 109t-112 275v614h90v-606q0 -125 91 -213q90 -89 223 -89q124 0 214.5 88.5t90.5 213.5v606h90v-614q-3 -166 -112 -275t-282 -109zM544 1155q75 -60 124 -60h5q50 3 70 84h69q-21 -129 -99 -152q-21 -6 -42 -6q-57 0 -115 46q-75 59 -124 59h-5
q-50 -3 -70 -84h-70q22 129 100 152q21 6 42 6q57 0 115 -45z" />
    <glyph glyph-name="Umacron" unicode="&#x16a;" horiz-adv-x="1345" 
d="M1104 1600h91v-1150q-25 -183 -153 -311q-153 -153 -369 -153q-217 0 -370 153t-153 369v1092h91v-1092q0 -178 126.5 -304.5t305.5 -126.5t305 126.5t126 304.5v1092zM378 1745h590v-70h-590v70z" />
    <glyph glyph-name="umacron" unicode="&#x16b;" horiz-adv-x="1099" 
d="M555 -14q-184 0 -293 109t-112 275v614h90v-606q0 -125 91 -213q90 -89 223 -89q124 0 214.5 88.5t90.5 213.5v606h90v-614q-3 -166 -112 -275t-282 -109zM255 1127h590v-70h-590v70z" />
    <glyph glyph-name="Ubreve" unicode="&#x16c;" horiz-adv-x="1345" 
d="M1104 1600h91v-1150q-25 -183 -153 -311q-153 -153 -369 -153q-217 0 -370 153t-153 369v1092h91v-1092q0 -178 126.5 -304.5t305.5 -126.5t305 126.5t126 304.5v1092zM512 1856q8 -53 46 -91q48 -48 116 -48q67 0 115 48q39 38 46 91h73q-8 -83 -68 -143
q-68 -69 -166 -69q-99 0 -167 69q-65 66 -69 143h74z" />
    <glyph glyph-name="ubreve" unicode="&#x16d;" horiz-adv-x="1099" 
d="M555 -14q-184 0 -293 109t-112 275v614h90v-606q0 -125 91 -213q90 -89 223 -89q124 0 214.5 88.5t90.5 213.5v606h90v-614q-3 -166 -112 -275t-282 -109zM389 1238q8 -53 46 -91q48 -48 116 -48q67 0 115 48q39 38 46 91h73q-8 -83 -68 -143q-68 -69 -166 -69
q-99 0 -167 69q-65 66 -69 143h74z" />
    <glyph glyph-name="Uring" unicode="&#x16e;" horiz-adv-x="1345" 
d="M1104 1600h91v-1150q-25 -183 -153 -311q-153 -153 -369 -153q-217 0 -370 153t-153 369v1092h91v-1092q0 -178 126.5 -304.5t305.5 -126.5t305 126.5t126 304.5v1092zM760 1844q36 -36 36 -87q0 -50 -36 -86t-87 -36t-87 36t-36 86q0 51 36 87t87 36t87 -36zM673 1815
q-24 0 -41 -17t-17 -41q0 -23 17 -40t41 -17q23 0 40 17t17 40q0 24 -17 41t-40 17z" />
    <glyph glyph-name="uring" unicode="&#x16f;" horiz-adv-x="1099" 
d="M555 -14q-184 0 -293 109t-112 275v614h90v-606q0 -125 91 -213q90 -89 223 -89q124 0 214.5 88.5t90.5 213.5v606h90v-614q-3 -166 -112 -275t-282 -109zM637 1226q36 -36 36 -87q0 -50 -36 -86t-87 -36t-87 36t-36 86q0 51 36 87t87 36t87 -36zM550 1197q-24 0 -41 -17
t-17 -41q0 -23 17 -40t41 -17q23 0 40 17t17 40q0 24 -17 41t-40 17z" />
    <glyph glyph-name="Uhungarumlaut" unicode="&#x170;" horiz-adv-x="1345" 
d="M1104 1600h91v-1150q-25 -183 -153 -311q-153 -153 -369 -153q-217 0 -370 153t-153 369v1092h91v-1092q0 -178 126.5 -304.5t305.5 -126.5t305 126.5t126 304.5v1092zM723 1816l-245 -187h-84l163 187h166zM952 1816l-245 -187h-84l163 187h166z" />
    <glyph glyph-name="uhungarumlaut" unicode="&#x171;" horiz-adv-x="1099" 
d="M555 -14q-184 0 -293 109t-112 275v614h90v-606q0 -125 91 -213q90 -89 223 -89q124 0 214.5 88.5t90.5 213.5v606h90v-614q-3 -166 -112 -275t-282 -109zM600 1198l-245 -187h-84l163 187h166zM829 1198l-245 -187h-84l163 187h166z" />
    <glyph glyph-name="Uogonek" unicode="&#x172;" horiz-adv-x="1345" 
d="M711 -13q-19 -1 -38 -1q-217 0 -370 153t-153 369v1092h91v-1092q0 -178 126.5 -304.5t305.5 -126.5t305 126.5t126 304.5v1092h91v-1150q-25 -183 -153 -311q-109 -109 -249 -140l-1 -1q-30 -30 -30 -72l1 -1q0 -42 30 -72q29 -30 67 -30q37 0 80 33l23 -53l-3 -4
q-39 -39 -100 -39q-64 0 -112 48q-48 47 -48 114v3q0 34 11 62z" />
    <glyph glyph-name="uogonek" unicode="&#x173;" horiz-adv-x="1099" 
d="M602 -12q-23 -2 -47 -2q-184 0 -293 109t-112 275v614h90v-606q0 -125 91 -213q90 -89 223 -89q124 0 214.5 88.5t90.5 213.5v606h90v-614q-3 -166 -112 -275q-63 -63 -147 -89l-8 -8q-30 -30 -30 -72l1 -1q0 -42 30 -72q29 -30 67 -30q37 0 80 33l23 -53l-3 -4
q-39 -39 -100 -39q-64 0 -112 48q-48 47 -48 114v3q0 34 12 63z" />
    <glyph glyph-name="Wcircumflex" unicode="&#x174;" horiz-adv-x="1672" 
d="M791 240v1360h90v-1360q23 -43 57 -77q90 -87 214 -87t214.5 88.5t90.5 213.5v1222h90v-1230q-3 -156 -115 -268q-116 -116 -280 -116q-163 0 -279 115q-21 20 -37 41q-16 -21 -37 -41q-116 -115 -279 -115q-164 0 -279 116q-113 112 -116 268v1230h90v-1222
q0 -125 90.5 -213.5t214.5 -88.5t214 87q34 34 57 77zM884 1842l238 -234h-104l-186 143l-176 -143h-105l229 234h104z" />
    <glyph glyph-name="wcircumflex" unicode="&#x175;" horiz-adv-x="1375" 
d="M642 260v722h90v-700q0 -88 59.5 -147t142.5 -59t143 59q55 55 59 133h-1v714h90v-714q-4 -115 -85 -196q-85 -86 -206 -86t-206 86q-23 23 -40 48q-17 -25 -41 -48q-85 -86 -206 -86t-206 86q-81 81 -85 196v714h90v-714h-1q4 -78 60 -133q59 -59 142 -59t143 59
q51 51 58 125zM735 1224l238 -234h-104l-186 143l-176 -143h-105l229 234h104z" />
    <glyph glyph-name="Ycircumflex" unicode="&#x176;" horiz-adv-x="1291" 
d="M600 647l-550 953h103l492 -853l493 853h103l-551 -953v-647h-90v647zM693 1842l238 -234h-104l-186 143l-176 -143h-105l229 234h104z" />
    <glyph glyph-name="ycircumflex" unicode="&#x177;" horiz-adv-x="1005" 
d="M503 88l-222 -463h-88l265 556l-383 801h102l326 -704l326 704h101l-427 -895v1zM550 1224l238 -234h-104l-186 143l-176 -143h-105l229 234h104z" />
    <glyph glyph-name="Zacute" unicode="&#x179;" horiz-adv-x="1327" 
d="M1022 1510h-872v90h1027l-873 -1510h873v-90h-1027zM883 1805l-245 -187h-84l163 187h166z" />
    <glyph glyph-name="zacute" unicode="&#x17a;" horiz-adv-x="1000" 
d="M657 878h-507v90h662l-52 -90l-456 -788h546v-90h-700l52 90zM719 1187l-245 -187h-84l163 187h166z" />
    <glyph glyph-name="Zdotaccent" unicode="&#x17b;" horiz-adv-x="1327" 
d="M1022 1510h-872v90h1027l-873 -1510h873v-90h-1027zM717.5 1799q22.5 -22 22.5 -54t-22.5 -54t-53.5 -22q-32 0 -54.5 22t-22.5 54t22.5 54t54.5 22q31 0 53.5 -22z" />
    <glyph glyph-name="zdotaccent" unicode="&#x17c;" horiz-adv-x="1000" 
d="M657 878h-507v90h662l-52 -90l-456 -788h546v-90h-700l52 90zM554.5 1181q22.5 -22 22.5 -54t-22.5 -54t-53.5 -22q-32 0 -54.5 22t-22.5 54t22.5 54t54.5 22q31 0 53.5 -22z" />
    <glyph glyph-name="Zcaron" unicode="&#x17d;" horiz-adv-x="1327" 
d="M1022 1510h-872v90h1027l-873 -1510h873v-90h-1027zM607 1608l-229 234h105l176 -143l186 143h104l-238 -234h-104z" />
    <glyph glyph-name="zcaron" unicode="&#x17e;" horiz-adv-x="1000" 
d="M657 878h-507v90h662l-52 -90l-456 -788h546v-90h-700l52 90zM444 990l-229 234h105l176 -143l186 143h104l-238 -234h-104z" />
    <glyph glyph-name="AEacute" unicode="&#x1fc;" horiz-adv-x="1758" 
d="M1633 845v-90h-710v-665h710v-90h-800v613h-339l-273 -613h-96l696 1600h812v-90h-710v-665h710zM833 703v712l-306 -712h306zM1098 1805l-245 -187h-84l163 187h166z" />
    <glyph glyph-name="aeacute" unicode="&#x1fd;" horiz-adv-x="2171" 
d="M1038 739q-30 55 -78 103q-133 133 -321 133t-321 -133t-133 -321t133 -320.5t321 -132.5t321 133q48 48 78 102q34 60 47 129v178q-13 69 -47 129zM1973 663q-32 103 -108 179q-133 133 -321 133t-321 -133q-27 -27 -48 -55v-124h798zM1175 256q21 -29 48 -55
q133 -133 321 -133t321 133q23 23 43 48l96 -34q-17 -28 -71 -82q-161 -161 -389 -161q-214 0 -369 143v-115h-90v200q-26 -35 -57 -67q-161 -161 -389 -161q-227 0 -388 161t-161 388q0 228 161 389t388 161q228 0 389 -161q31 -32 57 -67v139h90v-54q155 143 369 143
q228 0 389 -161q142 -143 148 -338l-906 1v-317zM1305 1187l-245 -187h-84l163 187h166z" />
    <glyph glyph-name="Oslashacute" unicode="&#x1fe;" horiz-adv-x="1892" 
d="M1213 1483q-123 48 -267 48q-302 0 -515.5 -213.5t-213.5 -515.5t214 -516q77 -77 166 -127zM678 121q124 -49 268 -49q302 0 515.5 214t213.5 516t-213 516q-78 77 -167 126zM1334 1528q103 -56 193 -145q240 -241 240 -581t-240.5 -580.5t-580.5 -240.5q-165 0 -306 57
l-86 -184l-82 38l86 184q-103 56 -192 146q-241 240 -241 580t240.5 580.5t580.5 240.5q165 0 306 -57l86 184l82 -38zM1165 1835l-245 -187h-84l163 187h166z" />
    <glyph glyph-name="oslashacute" unicode="&#x1ff;" horiz-adv-x="1278" 
d="M827 937q-86 39 -188 39q-188 0 -321 -133t-133 -321t133 -320q27 -28 57 -49zM904 891l-453 -783q86 -39 188 -39q188 0 321 132.5t133 320.5t-133 321q-27 27 -56 48zM327 70q-40 28 -76 64q-161 161 -161 388q0 228 161 389t388 161q129 0 237 -52l122 212l79 -41
l-125 -216q40 -28 76 -64q160 -161 160 -389q0 -227 -160.5 -388t-388.5 -161q-129 0 -236 52l-123 -213l-79 38zM858 1287l-245 -187h-84l163 187h166z" />
    <glyph glyph-name="Wgrave" unicode="&#x1e80;" horiz-adv-x="1672" 
d="M791 240v1360h90v-1360q23 -43 57 -77q90 -87 214 -87t214.5 88.5t90.5 213.5v1222h90v-1230q-3 -156 -115 -268q-116 -116 -280 -116q-163 0 -279 115q-21 20 -37 41q-16 -21 -37 -41q-116 -115 -279 -115q-164 0 -279 116q-113 112 -116 268v1230h90v-1222
q0 -125 90.5 -213.5t214.5 -88.5t214 87q34 34 57 77zM783 1905l163 -187h-84l-245 187h166z" />
    <glyph glyph-name="wgrave" unicode="&#x1e81;" horiz-adv-x="1375" 
d="M642 260v722h90v-700q0 -88 59.5 -147t142.5 -59t143 59q55 55 59 133h-1v714h90v-714q-4 -115 -85 -196q-85 -86 -206 -86t-206 86q-23 23 -40 48q-17 -25 -41 -48q-85 -86 -206 -86t-206 86q-81 81 -85 196v714h90v-714h-1q4 -78 60 -133q59 -59 142 -59t143 59
q51 51 58 125zM634 1287l163 -187h-84l-245 187h166z" />
    <glyph glyph-name="Wacute" unicode="&#x1e82;" horiz-adv-x="1672" 
d="M791 240v1360h90v-1360q23 -43 57 -77q90 -87 214 -87t214.5 88.5t90.5 213.5v1222h90v-1230q-3 -156 -115 -268q-116 -116 -280 -116q-163 0 -279 115q-21 20 -37 41q-16 -21 -37 -41q-116 -115 -279 -115q-164 0 -279 116q-113 112 -116 268v1230h90v-1222
q0 -125 90.5 -213.5t214.5 -88.5t214 87q34 34 57 77zM1055 1805l-245 -187h-84l163 187h166z" />
    <glyph glyph-name="wacute" unicode="&#x1e83;" horiz-adv-x="1375" 
d="M642 260v722h90v-700q0 -88 59.5 -147t142.5 -59t143 59q55 55 59 133h-1v714h90v-714q-4 -115 -85 -196q-85 -86 -206 -86t-206 86q-23 23 -40 48q-17 -25 -41 -48q-85 -86 -206 -86t-206 86q-81 81 -85 196v714h90v-714h-1q4 -78 60 -133q59 -59 142 -59t143 59
q51 51 58 125zM907 1187l-245 -187h-84l163 187h166z" />
    <glyph glyph-name="Wdieresis" unicode="&#x1e84;" horiz-adv-x="1672" 
d="M791 240v1360h90v-1360q23 -43 57 -77q90 -87 214 -87t214.5 88.5t90.5 213.5v1222h90v-1230q-3 -156 -115 -268q-116 -116 -280 -116q-163 0 -279 115q-21 20 -37 41q-16 -21 -37 -41q-116 -115 -279 -115q-164 0 -279 116q-113 112 -116 268v1230h90v-1222
q0 -125 90.5 -213.5t214.5 -88.5t214 87q34 34 57 77zM749.5 1922q26.5 -26 26.5 -63q0 -38 -26.5 -64t-63.5 -26t-63.5 26t-26.5 64q0 37 26.5 63t63.5 26t63.5 -26zM1049.5 1922q26.5 -26 26.5 -63q0 -38 -26.5 -64t-63.5 -26t-63.5 26t-26.5 64q0 37 26.5 63t63.5 26
t63.5 -26z" />
    <glyph glyph-name="wdieresis" unicode="&#x1e85;" horiz-adv-x="1375" 
d="M642 260v722h90v-700q0 -88 59.5 -147t142.5 -59t143 59q55 55 59 133h-1v714h90v-714q-4 -115 -85 -196q-85 -86 -206 -86t-206 86q-23 23 -40 48q-17 -25 -41 -48q-85 -86 -206 -86t-206 86q-81 81 -85 196v714h90v-714h-1q4 -78 60 -133q59 -59 142 -59t143 59
q51 51 58 125zM601.5 1304q26.5 -26 26.5 -63q0 -38 -26.5 -64t-63.5 -26t-63.5 26t-26.5 64q0 37 26.5 63t63.5 26t63.5 -26zM901.5 1304q26.5 -26 26.5 -63q0 -38 -26.5 -64t-63.5 -26t-63.5 26t-26.5 64q0 37 26.5 63t63.5 26t63.5 -26z" />
    <glyph glyph-name="afii00208" unicode="&#x2015;" horiz-adv-x="3072" 
d="M-75 637h2111v-90h-2111v90z" />
    <glyph glyph-name="underscoredbl" unicode="&#x2017;" horiz-adv-x="1050" 
d="M25 -255h1000v-90h-1000v90zM25 -30h1000v-90h-1000v90z" />
    <glyph glyph-name="quotereversed" unicode="&#x201b;" horiz-adv-x="280" 
d="M500 1285h-65l-98 198q-7 18 -7 39q0 37 26.5 63t63.5 26t63.5 -26t26.5 -63q0 -38 -27 -64q-17 -18 -40 -23z" />
    <glyph glyph-name="minute" unicode="&#x2032;" horiz-adv-x="340" 
d="M125 997v600h90v-600h-90z" />
    <glyph glyph-name="second" unicode="&#x2033;" horiz-adv-x="520" 
d="M125 997v600h90v-600h-90zM305 997v600h90v-600h-90z" />
    <glyph glyph-name="exclamdbl" unicode="&#x203c;" horiz-adv-x="860" 
d="M278.5 139q26.5 -26 26.5 -63q0 -38 -26.5 -64t-63.5 -26t-63.5 26t-26.5 64q0 37 26.5 63t63.5 26t63.5 -26zM258 1600v-1324h-90v1324h90zM708.5 139q26.5 -26 26.5 -63q0 -38 -26.5 -64t-63.5 -26t-63.5 26t-26.5 64q0 37 26.5 63t63.5 26t63.5 -26zM688 1600v-1324
h-90v1324h90z" />
    <glyph glyph-name="uniF001" unicode="&#xf001;" horiz-adv-x="953" 
d="M280 892v-892h-90v892h-100v90h100v266q6 111 85 191q82 76 189 76q56 0 118 -21l-28 -80q-42 18 -81 18q-71 0 -134 -57q-56 -55 -59 -133v-260h200v-90h-200zM783 982v-982h-90v982h90zM801.5 1304q26.5 -26 26.5 -63q0 -38 -26.5 -64t-63.5 -26t-63.5 26t-26.5 64
q0 37 26.5 63t63.5 26t63.5 -26z" />
    <glyph glyph-name="uniF002" unicode="&#xf002;" horiz-adv-x="913" 
d="M280 892v-892h-90v892h-100v90h100v266q6 111 85 191q82 76 189 76q56 0 118 -21l-28 -80q-42 18 -81 18q-71 0 -134 -57q-56 -55 -59 -133v-260h200v-90h-200zM763 1600v-1600h-90v1600h90z" />
    <glyph glyph-name="uniFB01" unicode="&#xfb01;" horiz-adv-x="953" 
d="M280 892v-892h-90v892h-100v90h100v266q6 111 85 191q82 76 189 76q56 0 118 -21l-28 -80q-42 18 -81 18q-71 0 -134 -57q-56 -55 -59 -133v-260h200v-90h-200zM783 982v-982h-90v982h90zM801.5 1304q26.5 -26 26.5 -63q0 -38 -26.5 -64t-63.5 -26t-63.5 26t-26.5 64
q0 37 26.5 63t63.5 26t63.5 -26z" />
    <glyph glyph-name="uniFB02" unicode="&#xfb02;" horiz-adv-x="913" 
d="M280 892v-892h-90v892h-100v90h100v266q6 111 85 191q82 76 189 76q56 0 118 -21l-28 -80q-42 18 -81 18q-71 0 -134 -57q-56 -55 -59 -133v-260h200v-90h-200zM763 1600v-1600h-90v1600h90z" />
    </font>
</defs>
</svg>
